  0
SECTION
  2
HEADER
  9
$ACADVER
  1
AC1032
  9
$ACADMAINTVER
 90
      159
  9
$DWGCODEPAGE
  3
ANSI_1250
  9
$LASTSAVEDBY
  1
vancura
  9
$REQUIREDVERSIONS
160
                 0
  9
$INSBASE
 10
0.0
 20
0.0
 30
0.0
  9
$EXTMIN
 10
489.0788844887647
 20
392.8363328441907
 30
0.0
  9
$EXTMAX
 10
570.257671409608
 20
505.3981313177808
 30
0.0
  9
$LIMMIN
 10
0.0
 20
0.0
  9
$LIMMAX
 10
420.0
 20
297.0
  9
$ORTHOMODE
 70
     1
  9
$REGENMODE
 70
     1
  9
$FILLMODE
 70
     1
  9
$QTEXTMODE
 70
     0
  9
$MIRRTEXT
 70
     1
  9
$LTSCALE
 40
1.0
  9
$ATTMODE
 70
     1
  9
$TEXTSIZE
 40
2.5
  9
$TRACEWID
 40
1.0
  9
$TEXTSTYLE
  7
Standard
  9
$CLAYER
  8
0
  9
$CELTYPE
  6
ByLayer
  9
$CECOLOR
 62
   256
  9
$CELTSCALE
 40
1.0
  9
$DISPSILH
 70
     0
  9
$DIMSCALE
 40
1.0
  9
$DIMASZ
 40
2.5
  9
$DIMEXO
 40
0.625
  9
$DIMDLI
 40
3.75
  9
$DIMRND
 40
0.0
  9
$DIMDLE
 40
0.0
  9
$DIMEXE
 40
1.25
  9
$DIMTP
 40
0.0
  9
$DIMTM
 40
0.0
  9
$DIMTXT
 40
2.5
  9
$DIMCEN
 40
2.5
  9
$DIMTSZ
 40
0.0
  9
$DIMTOL
 70
     0
  9
$DIMLIM
 70
     0
  9
$DIMTIH
 70
     0
  9
$DIMTOH
 70
     0
  9
$DIMSE1
 70
     0
  9
$DIMSE2
 70
     0
  9
$DIMTAD
 70
     1
  9
$DIMZIN
 70
     8
  9
$DIMBLK
  1

  9
$DIMASO
 70
     1
  9
$DIMSHO
 70
     1
  9
$DIMPOST
  1

  9
$DIMAPOST
  1

  9
$DIMALT
 70
     0
  9
$DIMALTD
 70
     3
  9
$DIMALTF
 40
0.03937007874016
  9
$DIMLFAC
 40
1.0
  9
$DIMTOFL
 70
     1
  9
$DIMTVP
 40
0.0
  9
$DIMTIX
 70
     0
  9
$DIMSOXD
 70
     0
  9
$DIMSAH
 70
     0
  9
$DIMBLK1
  1

  9
$DIMBLK2
  1

  9
$DIMSTYLE
  2
ISO-25
  9
$DIMCLRD
 70
     0
  9
$DIMCLRE
 70
     0
  9
$DIMCLRT
 70
     0
  9
$DIMTFAC
 40
1.0
  9
$DIMGAP
 40
0.625
  9
$DIMJUST
 70
     0
  9
$DIMSD1
 70
     0
  9
$DIMSD2
 70
     0
  9
$DIMTOLJ
 70
     0
  9
$DIMTZIN
 70
     8
  9
$DIMALTZ
 70
     0
  9
$DIMALTTZ
 70
     0
  9
$DIMUPT
 70
     0
  9
$DIMDEC
 70
     2
  9
$DIMTDEC
 70
     2
  9
$DIMALTU
 70
     2
  9
$DIMALTTD
 70
     3
  9
$DIMTXSTY
  7
Standard
  9
$DIMAUNIT
 70
     0
  9
$DIMADEC
 70
     0
  9
$DIMALTRND
 40
0.0
  9
$DIMAZIN
 70
     0
  9
$DIMDSEP
 70
    44
  9
$DIMATFIT
 70
     3
  9
$DIMFRAC
 70
     0
  9
$DIMLDRBLK
  1

  9
$DIMLUNIT
 70
     2
  9
$DIMLWD
 70
    -2
  9
$DIMLWE
 70
    -2
  9
$DIMTMOVE
 70
     0
  9
$DIMFXL
 40
1.0
  9
$DIMFXLON
 70
     0
  9
$DIMJOGANG
 40
0.7853981633974483
  9
$DIMTFILL
 70
     0
  9
$DIMTFILLCLR
 70
     0
  9
$DIMARCSYM
 70
     0
  9
$DIMLTYPE
  6

  9
$DIMLTEX1
  6

  9
$DIMLTEX2
  6

  9
$DIMTXTDIRECTION
 70
     0
  9
$LUNITS
 70
     2
  9
$LUPREC
 70
     4
  9
$SKETCHINC
 40
1.0
  9
$FILLETRAD
 40
1.5
  9
$AUNITS
 70
     0
  9
$AUPREC
 70
     0
  9
$MENU
  1
.
  9
$ELEVATION
 40
0.0
  9
$PELEVATION
 40
0.0
  9
$THICKNESS
 40
0.0
  9
$LIMCHECK
 70
     0
  9
$CHAMFERA
 40
10.0
  9
$CHAMFERB
 40
10.0
  9
$CHAMFERC
 40
20.0
  9
$CHAMFERD
 40
0.0
  9
$SKPOLY
 70
     0
  9
$TDCREATE
 40
2453570.274791667
  9
$TDUCREATE
 40
2453570.191463773
  9
$TDUPDATE
 40
2459584.428865741
  9
$TDUUPDATE
 40
2459584.387199074
  9
$TDINDWG
 40
0.2342309606
  9
$TDUSRTIMER
 40
0.2342227431
  9
$USRTIMER
 70
     1
  9
$ANGBASE
 50
0.0
  9
$ANGDIR
 70
     0
  9
$PDMODE
 70
     0
  9
$PDSIZE
 40
0.0
  9
$PLINEWID
 40
0.0
  9
$SPLFRAME
 70
     0
  9
$SPLINETYPE
 70
     6
  9
$SPLINESEGS
 70
     8
  9
$HANDSEED
  5
7C0
  9
$SURFTAB1
 70
     6
  9
$SURFTAB2
 70
     6
  9
$SURFTYPE
 70
     6
  9
$SURFU
 70
     6
  9
$SURFV
 70
     6
  9
$UCSBASE
  2

  9
$UCSNAME
  2

  9
$UCSORG
 10
0.0
 20
0.0
 30
0.0
  9
$UCSXDIR
 10
1.0
 20
0.0
 30
0.0
  9
$UCSYDIR
 10
0.0
 20
1.0
 30
0.0
  9
$UCSORTHOREF
  2

  9
$UCSORTHOVIEW
 70
     1
  9
$UCSORGTOP
 10
0.0
 20
0.0
 30
0.0
  9
$UCSORGBOTTOM
 10
0.0
 20
0.0
 30
0.0
  9
$UCSORGLEFT
 10
0.0
 20
0.0
 30
0.0
  9
$UCSORGRIGHT
 10
0.0
 20
0.0
 30
0.0
  9
$UCSORGFRONT
 10
0.0
 20
0.0
 30
0.0
  9
$UCSORGBACK
 10
0.0
 20
0.0
 30
0.0
  9
$PUCSBASE
  2

  9
$PUCSNAME
  2

  9
$PUCSORG
 10
0.0
 20
0.0
 30
0.0
  9
$PUCSXDIR
 10
1.0
 20
0.0
 30
0.0
  9
$PUCSYDIR
 10
0.0
 20
1.0
 30
0.0
  9
$PUCSORTHOREF
  2

  9
$PUCSORTHOVIEW
 70
     0
  9
$PUCSORGTOP
 10
0.0
 20
0.0
 30
0.0
  9
$PUCSORGBOTTOM
 10
0.0
 20
0.0
 30
0.0
  9
$PUCSORGLEFT
 10
0.0
 20
0.0
 30
0.0
  9
$PUCSORGRIGHT
 10
0.0
 20
0.0
 30
0.0
  9
$PUCSORGFRONT
 10
0.0
 20
0.0
 30
0.0
  9
$PUCSORGBACK
 10
0.0
 20
0.0
 30
0.0
  9
$USERI1
 70
     0
  9
$USERI2
 70
     0
  9
$USERI3
 70
     0
  9
$USERI4
 70
     0
  9
$USERI5
 70
     0
  9
$USERR1
 40
0.0
  9
$USERR2
 40
0.0
  9
$USERR3
 40
0.0
  9
$USERR4
 40
0.0
  9
$USERR5
 40
0.0
  9
$WORLDVIEW
 70
     1
  9
$SHADEDGE
 70
     3
  9
$SHADEDIF
 70
    70
  9
$TILEMODE
 70
     1
  9
$MAXACTVP
 70
    64
  9
$PINSBASE
 10
0.0
 20
0.0
 30
0.0
  9
$PLIMCHECK
 70
     0
  9
$PEXTMIN
 10
26.66999878883363
 20
20.31999878883363
 30
0.0
  9
$PEXTMAX
 10
240.0299890995026
 20
182.8799890995025
 30
0.0
  9
$PLIMMIN
 10
-6.350006103515625
 20
-6.349999904632567
  9
$PLIMMAX
 10
273.0499877929688
 20
209.5499939918518
  9
$UNITMODE
 70
     0
  9
$VISRETAIN
 70
     1
  9
$PLINEGEN
 70
     0
  9
$PSLTSCALE
 70
     1
  9
$TREEDEPTH
 70
  3020
  9
$CMLSTYLE
  2
Standard
  9
$CMLJUST
 70
     0
  9
$CMLSCALE
 40
20.0
  9
$PROXYGRAPHICS
 70
     1
  9
$MEASUREMENT
 70
     1
  9
$CELWEIGHT
370
    -1
  9
$ENDCAPS
280
     0
  9
$JOINSTYLE
280
     0
  9
$LWDISPLAY
290
     0
  9
$INSUNITS
 70
     4
  9
$HYPERLINKBASE
  1

  9
$STYLESHEET
  1

  9
$XEDIT
290
     1
  9
$CEPSNTYPE
380
     0
  9
$PSTYLEMODE
290
     1
  9
$FINGERPRINTGUID
  2
{FDEAD578-A652-11D2-9A35-0060089B3A3F}
  9
$VERSIONGUID
  2
{84FA6667-7D74-0445-B4F1-90E21DC7FDEC}
  9
$EXTNAMES
290
     1
  9
$PSVPSCALE
 40
0.0
  9
$OLESTARTUP
290
     0
  9
$SORTENTS
280
   127
  9
$INDEXCTL
280
     0
  9
$HIDETEXT
280
     1
  9
$XCLIPFRAME
280
     0
  9
$HALOGAP
280
     0
  9
$OBSCOLOR
 70
   257
  9
$OBSLTYPE
280
     0
  9
$INTERSECTIONDISPLAY
280
     0
  9
$INTERSECTIONCOLOR
 70
   257
  9
$DIMASSOC
280
     2
  9
$PROJECTNAME
  1

  9
$CAMERADISPLAY
290
     0
  9
$LENSLENGTH
 40
50.0
  9
$CAMERAHEIGHT
 40
0.0
  9
$STEPSPERSEC
 40
2.0
  9
$STEPSIZE
 40
6.0
  9
$3DDWFPREC
 40
2.0
  9
$PSOLWIDTH
 40
0.25
  9
$PSOLHEIGHT
 40
4.0
  9
$LOFTANG1
 40
1.570796326794896
  9
$LOFTANG2
 40
1.570796326794896
  9
$LOFTMAG1
 40
0.0
  9
$LOFTMAG2
 40
0.0
  9
$LOFTPARAM
 70
     7
  9
$LOFTNORMALS
280
     1
  9
$LATITUDE
 40
37.795
  9
$LONGITUDE
 40
-122.394
  9
$NORTHDIRECTION
 40
0.0
  9
$TIMEZONE
 70
 -8000
  9
$LIGHTGLYPHDISPLAY
280
     1
  9
$TILEMODELIGHTSYNCH
280
     1
  9
$CMATERIAL
347
6F2
  9
$SOLIDHIST
280
     0
  9
$SHOWHIST
280
     1
  9
$DWFFRAME
280
     2
  9
$DGNFRAME
280
     0
  9
$REALWORLDSCALE
290
     1
  9
$INTERFERECOLOR
 62
     1
  9
$INTERFEREOBJVS
345
714
  9
$INTERFEREVPVS
346
711
  9
$CSHADOW
280
     0
  9
$SHADOWPLANELOCATION
 40
0.0
  0
ENDSEC
  0
SECTION
  2
CLASSES
  0
CLASS
  1
ACDBDICTIONARYWDFLT
  2
AcDbDictionaryWithDefault
  3
ObjectDBX Classes
 90
        0
 91
        1
280
     0
281
     0
  0
CLASS
  1
DICTIONARYVAR
  2
AcDbDictionaryVar
  3
ObjectDBX Classes
 90
        0
 91
       11
280
     0
281
     0
  0
CLASS
  1
DIMASSOC
  2
AcDbDimAssoc
  3
"AcDbDimAssoc|Product Desc:     AcDim ARX App For Dimension|Company:          Autodesk, Inc.|WEB Address:      www.autodesk.com"
 90
        0
 91
        5
280
     0
281
     0
  0
CLASS
  1
TABLESTYLE
  2
AcDbTableStyle
  3
ObjectDBX Classes
 90
     4095
 91
        1
280
     0
281
     0
  0
CLASS
  1
SORTENTSTABLE
  2
AcDbSortentsTable
  3
ObjectDBX Classes
 90
        0
 91
        1
280
     0
281
     0
  0
CLASS
  1
MATERIAL
  2
AcDbMaterial
  3
ObjectDBX Classes
 90
     1153
 91
        3
280
     0
281
     0
  0
CLASS
  1
VISUALSTYLE
  2
AcDbVisualStyle
  3
ObjectDBX Classes
 90
     4095
 91
       24
280
     0
281
     0
  0
CLASS
  1
SCALE
  2
AcDbScale
  3
ObjectDBX Classes
 90
     1153
 91
       17
280
     0
281
     0
  0
CLASS
  1
MLEADERSTYLE
  2
AcDbMLeaderStyle
  3
ACDB_MLEADERSTYLE_CLASS
 90
     4095
 91
        1
280
     0
281
     0
  0
CLASS
  1
ACDBSECTIONVIEWSTYLE
  2
AcDbSectionViewStyle
  3
ObjectDBX Classes
 90
     1025
 91
        1
280
     0
281
     0
  0
CLASS
  1
ACDBDETAILVIEWSTYLE
  2
AcDbDetailViewStyle
  3
ObjectDBX Classes
 90
     1025
 91
        1
280
     0
281
     0
  0
CLASS
  1
CELLSTYLEMAP
  2
AcDbCellStyleMap
  3
ObjectDBX Classes
 90
     1152
 91
        2
280
     0
281
     0
  0
ENDSEC
  0
SECTION
  2
TABLES
  0
TABLE
  2
VPORT
  5
8
330
0
100
AcDbSymbolTable
 70
     1
  0
VPORT
  5
6EC
330
8
100
AcDbSymbolTableRecord
100
AcDbViewportTableRecord
  2
*Active
 70
     0
 10
0.0
 20
0.0
 11
1.0
 21
1.0
 12
556.6377939185131
 22
449.9238472715602
 13
0.0
 23
0.0
 14
10.0
 24
10.0
 15
10.0
 25
10.0
 16
0.0
 26
0.0
 36
1.0
 17
0.0
 27
0.0
 37
0.0
 40
148.6433708224534
 41
1.941756272401433
 42
50.0
 43
0.0
 44
0.0
 50
0.0
 51
0.0
 71
     0
 72
  1000
 73
     1
 74
     3
 75
     0
 76
     0
 77
     0
 78
     0
281
     0
 65
     1
110
0.0
120
0.0
130
0.0
111
1.0
121
0.0
131
0.0
112
0.0
122
1.0
132
0.0
 79
     0
146
0.0
348
710
 60
     3
 61
     5
292
     1
282
     1
141
0.0
142
0.0
 63
   250
421
  3355443
1001
ACAD_NAV_VCDISPLAY
1070
     3
  0
ENDTAB
  0
TABLE
  2
LTYPE
  5
5
330
0
100
AcDbSymbolTable
 70
     1
  0
LTYPE
  5
14
330
5
100
AcDbSymbolTableRecord
100
AcDbLinetypeTableRecord
  2
ByBlock
 70
     0
  3

 72
    65
 73
     0
 40
0.0
  0
LTYPE
  5
15
330
5
100
AcDbSymbolTableRecord
100
AcDbLinetypeTableRecord
  2
ByLayer
 70
     0
  3

 72
    65
 73
     0
 40
0.0
  0
LTYPE
  5
16
330
5
100
AcDbSymbolTableRecord
100
AcDbLinetypeTableRecord
  2
Continuous
 70
     0
  3
Solid line
 72
    65
 73
     0
 40
0.0
  0
ENDTAB
  0
TABLE
  2
LAYER
  5
2
330
0
100
AcDbSymbolTable
 70
     3
  0
LAYER
  5
10
102
{ACAD_XDICTIONARY
360
77A
102
}
330
2
100
AcDbSymbolTableRecord
100
AcDbLayerTableRecord
  2
0
 70
     0
 62
     7
  6
Continuous
370
    -3
390
F
347
702
348
0
  0
LAYER
  5
DE
330
2
100
AcDbSymbolTableRecord
100
AcDbLayerTableRecord
  2
Defpoints
 70
     0
 62
     7
  6
Continuous
290
     0
370
    -3
390
F
347
702
348
0
  0
LAYER
  5
64A
102
{ACAD_XDICTIONARY
360
77C
102
}
330
2
100
AcDbSymbolTableRecord
100
AcDbLayerTableRecord
  2
Hladina1
 70
     0
 62
     5
  6
Continuous
370
    -3
390
F
347
702
348
0
  0
ENDTAB
  0
TABLE
  2
STYLE
  5
3
330
0
100
AcDbSymbolTable
 70
     1
  0
STYLE
  5
11
330
3
100
AcDbSymbolTableRecord
100
AcDbTextStyleTableRecord
  2
Standard
 70
     0
 40
0.0
 41
1.0
 50
0.0
 71
     0
 42
2.5
  3
txt
  4

  0
ENDTAB
  0
TABLE
  2
VIEW
  5
6
330
0
100
AcDbSymbolTable
 70
     0
  0
ENDTAB
  0
TABLE
  2
UCS
  5
7
330
0
100
AcDbSymbolTable
 70
     0
  0
ENDTAB
  0
TABLE
  2
APPID
  5
9
330
0
100
AcDbSymbolTable
 70
     3
  0
APPID
  5
12
330
9
100
AcDbSymbolTableRecord
100
AcDbRegAppTableRecord
  2
ACAD
 70
     0
  0
APPID
  5
652
330
9
100
AcDbSymbolTableRecord
100
AcDbRegAppTableRecord
  2
ACAD_EXEMPT_FROM_CAD_STANDARDS
 70
     0
  0
APPID
  5
786
330
9
100
AcDbSymbolTableRecord
100
AcDbRegAppTableRecord
  2
ACAD_NAV_VCDISPLAY
 70
     0
  0
ENDTAB
  0
TABLE
  2
DIMSTYLE
  5
A
330
0
100
AcDbSymbolTable
 70
     1
100
AcDbDimStyleTable
 71
     1
340
27
  0
DIMSTYLE
105
27
102
{ACAD_REACTORS
330
4B0
330
4C8
330
4E0
330
4F8
330
510
330
528
330
55E
102
}
330
A
100
AcDbSymbolTableRecord
100
AcDbDimStyleTableRecord
  2
ISO-25
 70
     0
 41
2.5
 42
0.625
 43
3.75
 44
1.25
 73
     0
 74
     0
 77
     1
 78
     8
140
2.5
141
2.5
143
0.03937007874016
147
0.625
171
     3
172
     1
271
     2
272
     2
274
     3
278
    44
283
     0
284
     8
340
11
  0
ENDTAB
  0
TABLE
  2
BLOCK_RECORD
  5
1
330
0
100
AcDbSymbolTable
 70
    16
  0
BLOCK_RECORD
  5
1F
102
{ACAD_XDICTIONARY
360
665
102
}
330
1
100
AcDbSymbolTableRecord
100
AcDbBlockTableRecord
  2
*Model_Space
340
22
 70
     0
280
     1
281
     0
  0
BLOCK_RECORD
  5
50
330
1
100
AcDbSymbolTableRecord
100
AcDbBlockTableRecord
  2
*Paper_Space
340
51
 70
     0
280
     1
281
     0
  0
BLOCK_RECORD
  5
55
330
1
100
AcDbSymbolTableRecord
100
AcDbBlockTableRecord
  2
*Paper_Space0
340
56
 70
     0
280
     1
281
     0
  0
BLOCK_RECORD
  5
421
330
1
100
AcDbSymbolTableRecord
100
AcDbBlockTableRecord
  2
*D1
340
0
 70
     0
280
     1
281
     0
  0
BLOCK_RECORD
  5
439
330
1
100
AcDbSymbolTableRecord
100
AcDbBlockTableRecord
  2
*D2
340
0
 70
     0
280
     1
281
     0
  0
BLOCK_RECORD
  5
451
330
1
100
AcDbSymbolTableRecord
100
AcDbBlockTableRecord
  2
*D3
340
0
 70
     0
280
     1
281
     0
  0
BLOCK_RECORD
  5
469
330
1
100
AcDbSymbolTableRecord
100
AcDbBlockTableRecord
  2
*D4
340
0
 70
     0
280
     1
281
     0
  0
BLOCK_RECORD
  5
481
330
1
100
AcDbSymbolTableRecord
100
AcDbBlockTableRecord
  2
*D5
340
0
 70
     0
280
     1
281
     0
  0
BLOCK_RECORD
  5
499
330
1
100
AcDbSymbolTableRecord
100
AcDbBlockTableRecord
  2
*D6
340
0
 70
     0
280
     1
281
     0
  0
BLOCK_RECORD
  5
4B1
330
1
100
AcDbSymbolTableRecord
100
AcDbBlockTableRecord
  2
*D7
340
0
 70
     0
280
     1
281
     0
  0
BLOCK_RECORD
  5
4C9
330
1
100
AcDbSymbolTableRecord
100
AcDbBlockTableRecord
  2
*D8
340
0
 70
     0
280
     1
281
     0
  0
BLOCK_RECORD
  5
4E1
330
1
100
AcDbSymbolTableRecord
100
AcDbBlockTableRecord
  2
*D9
340
0
 70
     0
280
     1
281
     0
  0
BLOCK_RECORD
  5
4F9
330
1
100
AcDbSymbolTableRecord
100
AcDbBlockTableRecord
  2
*D10
340
0
 70
     0
280
     1
281
     0
  0
BLOCK_RECORD
  5
511
330
1
100
AcDbSymbolTableRecord
100
AcDbBlockTableRecord
  2
*D11
340
0
 70
     0
280
     1
281
     0
  0
BLOCK_RECORD
  5
529
330
1
100
AcDbSymbolTableRecord
100
AcDbBlockTableRecord
  2
*D12
340
0
 70
     0
280
     1
281
     0
  0
BLOCK_RECORD
  5
552
330
1
100
AcDbSymbolTableRecord
100
AcDbBlockTableRecord
  2
*D13
340
0
 70
     0
280
     1
281
     0
  0
BLOCK_RECORD
  5
55F
330
1
100
AcDbSymbolTableRecord
100
AcDbBlockTableRecord
  2
*D14
340
0
 70
     0
280
     1
281
     0
  0
BLOCK_RECORD
  5
61C
330
1
100
AcDbSymbolTableRecord
100
AcDbBlockTableRecord
  2
2
340
0
310
2800000020000000200000000100080000000000000400000000000000000000000000000000000000000000000080000080000000808000800000008000800080800000C0C0C000C0DCC000F0CAA6000020400000206000002080000020A0000020C0000020E00000400000004020000040400000406000004080000040A0
310
000040C0000040E00000600000006020000060400000606000006080000060A0000060C0000060E00000800000008020000080400000806000008080000080A0000080C0000080E00000A0000000A0200000A0400000A0600000A0800000A0A00000A0C00000A0E00000C0000000C0200000C0400000C0600000C0800000C0
310
A00000C0C00000C0E00000E0000000E0200000E0400000E0600000E0800000E0A00000E0C00000E0E00040000000400020004000400040006000400080004000A0004000C0004000E00040200000402020004020400040206000402080004020A0004020C0004020E000404000004040200040404000404060004040800040
310
40A0004040C0004040E00040600000406020004060400040606000406080004060A0004060C0004060E00040800000408020004080400040806000408080004080A0004080C0004080E00040A0000040A0200040A0400040A0600040A0800040A0A00040A0C00040A0E00040C0000040C0200040C0400040C0600040C08000
310
40C0A00040C0C00040C0E00040E0000040E0200040E0400040E0600040E0800040E0A00040E0C00040E0E00080000000800020008000400080006000800080008000A0008000C0008000E00080200000802020008020400080206000802080008020A0008020C0008020E00080400000804020008040400080406000804080
310
008040A0008040C0008040E00080600000806020008060400080606000806080008060A0008060C0008060E00080800000808020008080400080806000808080008080A0008080C0008080E00080A0000080A0200080A0400080A0600080A0800080A0A00080A0C00080A0E00080C0000080C0200080C0400080C0600080C0
310
800080C0A00080C0C00080C0E00080E0000080E0200080E0400080E0600080E0800080E0A00080E0C00080E0E000C0000000C0002000C0004000C0006000C0008000C000A000C000C000C000E000C0200000C0202000C0204000C0206000C0208000C020A000C020C000C020E000C0400000C0402000C0404000C0406000C0
310
408000C040A000C040C000C040E000C0600000C0602000C0604000C0606000C0608000C060A000C060C000C060E000C0800000C0802000C0804000C0806000C0808000C080A000C080C000C080E000C0A00000C0A02000C0A04000C0A06000C0A08000C0A0A000C0A0C000C0A0E000C0C00000C0C02000C0C04000C0C06000
310
C0C08000C0C0A000F0FBFF00A4A0A000808080000000FF0000FF000000FFFF00FF000000FF00FF00FFFF0000FFFFFF0000000000000000000000000000000000000000000000000000000000000000000000000000000000000000000000000000000000000000000000000000000000000000000000000000000000000000
310
0000000000000000000000000000000000000000000000FCFCFCFCFCFCFCFCFCFCFCFCFCFC000000000000000000000000000000FCFCFCFCFCFCFCFCFCFCFCFCFCFC000000FCFC000000000000000000000000FCFCFCFCFCFC0000000000000000FC00FCFCFCFC000000000000000000000000FCFCFC00FCFC000000000000
310
0000FC00FC00FCFCFC0000000000000000000000FCFC0000FCFC0000000000000000FC00FC00FCFC000000000000000000000000FCFC0000FCFC0000000000FCFCFCFC00FC0000000000000000000000000000000000FCFCFCFCFC000000FCFC0000FC0000FCFC00000000000000000000000000FCFC0000FC00FCFCFCFCFC
310
FCFCFC0000FCFCFCFC000000000000000000000000FCFCFCFCFCFC0000FCFCFCFC0000FC00FC00FCFC000000000000000000000000FCFC0000FCFCFCFC00FCFC000000FC00FC00FCFC000000000000000000000000FCFC0000FCFC00FCFCFC00000000FC00FC000000000000000000000000000000FC000000FCFC00000000
310
00000000FC00FC000000000000000000000000000000000000FCFCFC000000000000000000FCFC00000000000000000000000000000000FCFCFC00FC000000000000000000FC00FC0000000000000000000000000000FC00FCFCFCFC000000000000000000FC00FC0000000000000000000000000000FCFCFC00FCFC000000
310
000000000000FC00FC0000000000000000000000000000FCFC0000FCFCFC00000000000000FC0000FC0000000000000000000000000000FCFC0000FC0000FCFCFC0000FCFC000000FC000000000000000000000000000000000000FC00FCFCFCFCFCFCFCFCFCFCFC00FC00000000000000000000000000000000FC0000FC00
310
000000000000000000FCFCFC00000000000000FC000000000000FC0000FC00000000000000000000000000FC000000000000FCFCFC00000000FC000000FC00000000FCFCFCFCFCFCFC000000FC00FCFCFCFC00FC00000000FC000000FCFCFCFCFCFC00FCFCFCFCFC00FCFC0000FCFC0000FCFC0000000000FC00FCFCFCFCFC
310
FCFCFCFCFC000000FCFCFCFC00000000FCFC00000000000000FCFC00000000000000000000FC0000000000FCFC000000FC00000000000000000000000000000000000000FCFCFCFCFCFCFC000000FCFC00000000000000000000000000000000000000000000000000FCFCFCFCFC0000000000000000000000000000000000
310
0000000000000000000000000000000000000000000000000000000000000000000000000000000000000000000000000000000000000000
102
{BLKREFS
331
650
102
}
 70
     4
280
     1
281
     0
  0
ENDTAB
  0
ENDSEC
  0
SECTION
  2
BLOCKS
  0
BLOCK
  5
20
330
1F
100
AcDbEntity
  8
0
100
AcDbBlockBegin
  2
*Model_Space
 70
     0
 10
0.0
 20
0.0
 30
0.0
  3
*Model_Space
  1

  0
ENDBLK
  5
21
330
1F
100
AcDbEntity
  8
0
100
AcDbBlockEnd
  0
BLOCK
  5
52
330
50
100
AcDbEntity
 67
     1
  8
0
100
AcDbBlockBegin
  2
*Paper_Space
 70
     0
 10
0.0
 20
0.0
 30
0.0
  3
*Paper_Space
  1

  0
ENDBLK
  5
53
330
50
100
AcDbEntity
 67
     1
  8
0
100
AcDbBlockEnd
  0
BLOCK
  5
57
330
55
100
AcDbEntity
 67
     1
  8
0
100
AcDbBlockBegin
  2
*Paper_Space0
 70
     0
 10
0.0
 20
0.0
 30
0.0
  3
*Paper_Space0
  1

  0
ENDBLK
  5
58
330
55
100
AcDbEntity
 67
     1
  8
0
100
AcDbBlockEnd
  0
BLOCK
  5
42B
330
421
100
AcDbEntity
  8
0
100
AcDbBlockBegin
  2
*D1
 70
     1
 10
0.0
 20
0.0
 30
0.0
  3
*D1
  1

  0
LINE
  5
42E
330
421
100
AcDbEntity
  8
0
 62
     0
440
 16777216
370
    -2
100
AcDbLine
 10
397.8753087391258
 20
487.8165608996885
 30
0.0
 11
406.002355991501
 21
487.8165608996885
 31
0.0
  0
LINE
  5
42F
330
421
100
AcDbEntity
  8
0
 62
     0
440
 16777216
370
    -2
100
AcDbLine
 10
394.8753087391258
 20
495.8165608996885
 30
0.0
 11
406.002355991501
 21
495.8165608996885
 31
0.0
  0
LINE
  5
430
330
421
100
AcDbEntity
  8
0
 62
     0
440
 16777216
370
    -2
100
AcDbLine
 10
404.7523559915011
 20
490.3165608996885
 30
0.0
 11
404.7523559915011
 21
493.3165608996885
 31
0.0
  0
SOLID
  5
431
330
421
100
AcDbEntity
  8
0
 62
     0
440
 16777216
100
AcDbTrace
 10
404.3356893248343
 20
490.3165608996885
 30
0.0
 11
405.1690226581676
 21
490.3165608996885
 31
0.0
 12
404.7523559915011
 22
487.8165608996885
 32
0.0
 13
404.7523559915011
 23
487.8165608996885
 33
0.0
  0
SOLID
  5
432
330
421
100
AcDbEntity
  8
0
 62
     0
440
 16777216
100
AcDbTrace
 10
404.3356893248343
 20
493.3165608996885
 30
0.0
 11
405.1690226581676
 21
493.3165608996885
 31
0.0
 12
404.7523559915011
 22
495.8165608996885
 32
0.0
 13
404.7523559915011
 23
495.8165608996885
 33
0.0
  0
MTEXT
  5
433
330
421
100
AcDbEntity
  8
0
 62
     0
440
 16777216
100
AcDbMText
 10
402.877355991501
 20
491.8165608996885
 30
0.0
 40
2.5
 41
0.0
 46
0.0
 71
     5
 72
     1
  1
8
 11
0.0000000000000001
 21
1.0
 31
0.0
 73
     1
 44
1.0
  0
POINT
  5
434
330
421
100
AcDbEntity
  8
Defpoints
 62
     0
440
 16777216
100
AcDbPoint
 10
397.2503087391258
 20
487.8165608996885
 30
0.0
  0
POINT
  5
435
330
421
100
AcDbEntity
  8
Defpoints
 62
     0
440
 16777216
100
AcDbPoint
 10
394.2503087391258
 20
495.8165608996885
 30
0.0
  0
POINT
  5
436
330
421
100
AcDbEntity
  8
Defpoints
 62
     0
440
 16777216
100
AcDbPoint
 10
404.7523559915011
 20
495.8165608996885
 30
0.0
  0
ENDBLK
  5
42C
330
421
100
AcDbEntity
  8
0
100
AcDbBlockEnd
  0
BLOCK
  5
443
330
439
100
AcDbEntity
  8
0
100
AcDbBlockBegin
  2
*D2
 70
     1
 10
0.0
 20
0.0
 30
0.0
  3
*D2
  1

  0
LINE
  5
446
330
439
100
AcDbEntity
  8
0
 62
     0
440
 16777216
370
    -2
100
AcDbLine
 10
397.2503087391258
 20
493.4415608996885
 30
0.0
 11
397.2503087391258
 21
502.6188020380149
 31
0.0
  0
LINE
  5
447
330
439
100
AcDbEntity
  8
0
 62
     0
440
 16777216
370
    -2
100
AcDbLine
 10
367.2503087391258
 20
493.4415608996885
 30
0.0
 11
367.2503087391258
 21
502.6188020380149
 31
0.0
  0
LINE
  5
448
330
439
100
AcDbEntity
  8
0
 62
     0
440
 16777216
370
    -2
100
AcDbLine
 10
394.7503087391258
 20
501.3688020380149
 30
0.0
 11
369.7503087391258
 21
501.3688020380149
 31
0.0
  0
SOLID
  5
449
330
439
100
AcDbEntity
  8
0
 62
     0
440
 16777216
100
AcDbTrace
 10
394.7503087391258
 20
501.7854687046813
 30
0.0
 11
394.7503087391258
 21
500.9521353713481
 31
0.0
 12
397.2503087391258
 22
501.3688020380149
 32
0.0
 13
397.2503087391258
 23
501.3688020380149
 33
0.0
  0
SOLID
  5
44A
330
439
100
AcDbEntity
  8
0
 62
     0
440
 16777216
100
AcDbTrace
 10
369.7503087391258
 20
501.7854687046813
 30
0.0
 11
369.7503087391258
 21
500.9521353713481
 31
0.0
 12
367.2503087391258
 22
501.3688020380149
 32
0.0
 13
367.2503087391258
 23
501.3688020380149
 33
0.0
  0
MTEXT
  5
44B
330
439
100
AcDbEntity
  8
0
 62
     0
440
 16777216
100
AcDbMText
 10
382.2503087391258
 20
503.2438020380149
 30
0.0
 40
2.5
 41
0.0
 46
0.0
 71
     5
 72
     1
  1
30
 73
     1
 44
1.0
  0
POINT
  5
44C
330
439
100
AcDbEntity
  8
Defpoints
 62
     0
440
 16777216
100
AcDbPoint
 10
397.2503087391258
 20
492.8165608996883
 30
0.0
  0
POINT
  5
44D
330
439
100
AcDbEntity
  8
Defpoints
 62
     0
440
 16777216
100
AcDbPoint
 10
367.2503087391258
 20
492.8165608996883
 30
0.0
  0
POINT
  5
44E
330
439
100
AcDbEntity
  8
Defpoints
 62
     0
440
 16777216
100
AcDbPoint
 10
367.2503087391258
 20
501.3688020380149
 30
0.0
  0
ENDBLK
  5
444
330
439
100
AcDbEntity
  8
0
100
AcDbBlockEnd
  0
BLOCK
  5
45B
330
451
100
AcDbEntity
  8
0
100
AcDbBlockBegin
  2
*D3
 70
     1
 10
0.0
 20
0.0
 30
0.0
  3
*D3
  1

  0
LINE
  5
45E
330
451
100
AcDbEntity
  8
0
 62
     0
440
 16777216
370
    -2
100
AcDbLine
 10
369.6253087391259
 20
495.8165608996885
 30
0.0
 11
343.8071242196453
 21
495.8165608996885
 31
0.0
  0
LINE
  5
45F
330
451
100
AcDbEntity
  8
0
 62
     0
440
 16777216
370
    -2
100
AcDbLine
 10
365.1253087391258
 20
469.8165608996885
 30
0.0
 11
343.8071242196453
 21
469.8165608996885
 31
0.0
  0
LINE
  5
460
330
451
100
AcDbEntity
  8
0
 62
     0
440
 16777216
370
    -2
100
AcDbLine
 10
345.0571242196453
 20
493.3165608996885
 30
0.0
 11
345.0571242196453
 21
472.3165608996885
 31
0.0
  0
SOLID
  5
461
330
451
100
AcDbEntity
  8
0
 62
     0
440
 16777216
100
AcDbTrace
 10
344.6404575529786
 20
493.3165608996885
 30
0.0
 11
345.473790886312
 21
493.3165608996885
 31
0.0
 12
345.0571242196453
 22
495.8165608996885
 32
0.0
 13
345.0571242196453
 23
495.8165608996885
 33
0.0
  0
SOLID
  5
462
330
451
100
AcDbEntity
  8
0
 62
     0
440
 16777216
100
AcDbTrace
 10
344.6404575529786
 20
472.3165608996885
 30
0.0
 11
345.473790886312
 21
472.3165608996885
 31
0.0
 12
345.0571242196453
 22
469.8165608996885
 32
0.0
 13
345.0571242196453
 23
469.8165608996885
 33
0.0
  0
MTEXT
  5
463
330
451
100
AcDbEntity
  8
0
 62
     0
440
 16777216
100
AcDbMText
 10
343.1821242196452
 20
482.8165608996886
 30
0.0
 40
2.5
 41
0.0
 46
0.0
 71
     5
 72
     1
  1
26
 11
0.0000000000000001
 21
1.0
 31
0.0
 73
     1
 44
1.0
  0
POINT
  5
464
330
451
100
AcDbEntity
  8
Defpoints
 62
     0
440
 16777216
100
AcDbPoint
 10
370.2503087391258
 20
495.8165608996885
 30
0.0
  0
POINT
  5
465
330
451
100
AcDbEntity
  8
Defpoints
 62
     0
440
 16777216
100
AcDbPoint
 10
365.7503087391258
 20
469.8165608996885
 30
0.0
  0
POINT
  5
466
330
451
100
AcDbEntity
  8
Defpoints
 62
     0
440
 16777216
100
AcDbPoint
 10
345.0571242196453
 20
469.8165608996885
 30
0.0
  0
ENDBLK
  5
45C
330
451
100
AcDbEntity
  8
0
100
AcDbBlockEnd
  0
BLOCK
  5
473
330
469
100
AcDbEntity
  8
0
100
AcDbBlockBegin
  2
*D4
 70
     1
 10
0.0
 20
0.0
 30
0.0
  3
*D4
  1

  0
LINE
  5
476
330
469
100
AcDbEntity
  8
0
 62
     0
440
 16777216
370
    -2
100
AcDbLine
 10
352.2503087391259
 20
467.4415608996883
 30
0.0
 11
352.2503087391259
 21
502.6188020380149
 31
0.0
  0
LINE
  5
477
330
469
100
AcDbEntity
  8
0
 62
     0
440
 16777216
370
    -2
100
AcDbLine
 10
367.2503087391258
 20
493.4415608996885
 30
0.0
 11
367.2503087391258
 21
502.6188020380149
 31
0.0
  0
LINE
  5
478
330
469
100
AcDbEntity
  8
0
 62
     0
440
 16777216
370
    -2
100
AcDbLine
 10
354.7503087391258
 20
501.3688020380149
 30
0.0
 11
364.7503087391259
 21
501.3688020380149
 31
0.0
  0
SOLID
  5
479
330
469
100
AcDbEntity
  8
0
 62
     0
440
 16777216
100
AcDbTrace
 10
354.7503087391258
 20
501.7854687046813
 30
0.0
 11
354.7503087391258
 21
500.9521353713481
 31
0.0
 12
352.2503087391259
 22
501.3688020380149
 32
0.0
 13
352.2503087391259
 23
501.3688020380149
 33
0.0
  0
SOLID
  5
47A
330
469
100
AcDbEntity
  8
0
 62
     0
440
 16777216
100
AcDbTrace
 10
364.7503087391259
 20
501.7854687046813
 30
0.0
 11
364.7503087391259
 21
500.9521353713481
 31
0.0
 12
367.2503087391258
 22
501.3688020380149
 32
0.0
 13
367.2503087391258
 23
501.3688020380149
 33
0.0
  0
MTEXT
  5
47B
330
469
100
AcDbEntity
  8
0
 62
     0
440
 16777216
100
AcDbMText
 10
359.7503087391258
 20
503.2438020380149
 30
0.0
 40
2.5
 41
0.0
 46
0.0
 71
     5
 72
     1
  1
15
 73
     1
 44
1.0
  0
POINT
  5
47C
330
469
100
AcDbEntity
  8
Defpoints
 62
     0
440
 16777216
100
AcDbPoint
 10
352.2503087391259
 20
466.8165608996885
 30
0.0
  0
POINT
  5
47D
330
469
100
AcDbEntity
  8
Defpoints
 62
     0
440
 16777216
100
AcDbPoint
 10
367.2503087391258
 20
492.8165608996883
 30
0.0
  0
POINT
  5
47E
330
469
100
AcDbEntity
  8
Defpoints
 62
     0
440
 16777216
100
AcDbPoint
 10
367.2503087391258
 20
501.3688020380149
 30
0.0
  0
ENDBLK
  5
474
330
469
100
AcDbEntity
  8
0
100
AcDbBlockEnd
  0
BLOCK
  5
48B
330
481
100
AcDbEntity
  8
0
100
AcDbBlockBegin
  2
*D5
 70
     1
 10
0.0
 20
0.0
 30
0.0
  3
*D5
  1

  0
LINE
  5
48E
330
481
100
AcDbEntity
  8
0
 62
     0
440
 16777216
370
    -2
100
AcDbLine
 10
382.8753087391259
 20
408.8165608996883
 30
0.0
 11
390.4057582049643
 21
408.8165608996883
 31
0.0
  0
LINE
  5
48F
330
481
100
AcDbEntity
  8
0
 62
     0
440
 16777216
370
    -2
100
AcDbLine
 10
379.8753087391258
 20
400.8165608996883
 30
0.0
 11
390.4057582049643
 21
400.8165608996883
 31
0.0
  0
LINE
  5
490
330
481
100
AcDbEntity
  8
0
 62
     0
440
 16777216
370
    -2
100
AcDbLine
 10
389.1557582049642
 20
406.3165608996883
 30
0.0
 11
389.1557582049642
 21
403.3165608996883
 31
0.0
  0
SOLID
  5
491
330
481
100
AcDbEntity
  8
0
 62
     0
440
 16777216
100
AcDbTrace
 10
388.7390915382975
 20
406.3165608996883
 30
0.0
 11
389.5724248716309
 21
406.3165608996883
 31
0.0
 12
389.1557582049642
 22
408.8165608996883
 32
0.0
 13
389.1557582049642
 23
408.8165608996883
 33
0.0
  0
SOLID
  5
492
330
481
100
AcDbEntity
  8
0
 62
     0
440
 16777216
100
AcDbTrace
 10
388.7390915382975
 20
403.3165608996883
 30
0.0
 11
389.5724248716309
 21
403.3165608996883
 31
0.0
 12
389.1557582049642
 22
400.8165608996883
 32
0.0
 13
389.1557582049642
 23
400.8165608996883
 33
0.0
  0
MTEXT
  5
493
330
481
100
AcDbEntity
  8
0
 62
     0
440
 16777216
100
AcDbMText
 10
387.2807582049641
 20
404.8165608996883
 30
0.0
 40
2.5
 41
0.0
 46
0.0
 71
     5
 72
     1
  1
8
 11
0.0000000000000001
 21
1.0
 31
0.0
 73
     1
 44
1.0
  0
POINT
  5
494
330
481
100
AcDbEntity
  8
Defpoints
 62
     0
440
 16777216
100
AcDbPoint
 10
382.2503087391258
 20
408.8165608996883
 30
0.0
  0
POINT
  5
495
330
481
100
AcDbEntity
  8
Defpoints
 62
     0
440
 16777216
100
AcDbPoint
 10
379.2503087391259
 20
400.8165608996883
 30
0.0
  0
POINT
  5
496
330
481
100
AcDbEntity
  8
Defpoints
 62
     0
440
 16777216
100
AcDbPoint
 10
389.1557582049642
 20
400.8165608996883
 30
0.0
  0
ENDBLK
  5
48C
330
481
100
AcDbEntity
  8
0
100
AcDbBlockEnd
  0
BLOCK
  5
4A3
330
499
100
AcDbEntity
  8
0
100
AcDbBlockBegin
  2
*D6
 70
     1
 10
0.0
 20
0.0
 30
0.0
  3
*D6
  1

  0
LINE
  5
4A6
330
499
100
AcDbEntity
  8
0
 62
     0
440
 16777216
370
    -2
100
AcDbLine
 10
352.2503087391257
 20
403.1915608996883
 30
0.0
 11
352.2503087391257
 21
389.964357337092
 31
0.0
  0
LINE
  5
4A7
330
499
100
AcDbEntity
  8
0
 62
     0
440
 16777216
370
    -2
100
AcDbLine
 10
382.2503087391258
 20
403.1915608996885
 30
0.0
 11
382.2503087391258
 21
389.964357337092
 31
0.0
  0
LINE
  5
4A8
330
499
100
AcDbEntity
  8
0
 62
     0
440
 16777216
370
    -2
100
AcDbLine
 10
354.7503087391257
 20
391.214357337092
 30
0.0
 11
379.7503087391258
 21
391.214357337092
 31
0.0
  0
SOLID
  5
4A9
330
499
100
AcDbEntity
  8
0
 62
     0
440
 16777216
100
AcDbTrace
 10
354.7503087391257
 20
391.6310240037587
 30
0.0
 11
354.7503087391257
 21
390.7976906704253
 31
0.0
 12
352.2503087391257
 22
391.214357337092
 32
0.0
 13
352.2503087391257
 23
391.214357337092
 33
0.0
  0
SOLID
  5
4AA
330
499
100
AcDbEntity
  8
0
 62
     0
440
 16777216
100
AcDbTrace
 10
379.7503087391258
 20
391.6310240037587
 30
0.0
 11
379.7503087391258
 21
390.7976906704253
 31
0.0
 12
382.2503087391258
 22
391.214357337092
 32
0.0
 13
382.2503087391258
 23
391.214357337092
 33
0.0
  0
MTEXT
  5
4AB
330
499
100
AcDbEntity
  8
0
 62
     0
440
 16777216
100
AcDbMText
 10
367.2503087391258
 20
393.089357337092
 30
0.0
 40
2.5
 41
0.0
 46
0.0
 71
     5
 72
     1
  1
30
 73
     1
 44
1.0
  0
POINT
  5
4AC
330
499
100
AcDbEntity
  8
Defpoints
 62
     0
440
 16777216
100
AcDbPoint
 10
352.2503087391257
 20
403.8165608996883
 30
0.0
  0
POINT
  5
4AD
330
499
100
AcDbEntity
  8
Defpoints
 62
     0
440
 16777216
100
AcDbPoint
 10
382.2503087391258
 20
403.8165608996885
 30
0.0
  0
POINT
  5
4AE
330
499
100
AcDbEntity
  8
Defpoints
 62
     0
440
 16777216
100
AcDbPoint
 10
382.2503087391258
 20
391.214357337092
 30
0.0
  0
ENDBLK
  5
4A4
330
499
100
AcDbEntity
  8
0
100
AcDbBlockEnd
  0
BLOCK
  5
4BB
330
4B1
100
AcDbEntity
  8
0
100
AcDbBlockBegin
  2
*D7
 70
     1
 10
0.0
 20
0.0
 30
0.0
  3
*D7
  1

  0
LINE
  5
4BE
330
4B1
100
AcDbEntity
  8
0
 62
     0
440
 16777216
370
    -2
100
AcDbLine
 10
543.7884307384556
 20
493.4415608996885
 30
0.0
 11
543.7884307384556
 21
503.5231313177805
 31
0.0
  0
LINE
  5
4BF
330
4B1
100
AcDbEntity
  8
0
 62
     0
440
 16777216
370
    -2
100
AcDbLine
 10
513.7884307384559
 20
493.4415608996885
 30
0.0
 11
513.7884307384559
 21
503.5231313177805
 31
0.0
  0
LINE
  5
4C0
330
4B1
100
AcDbEntity
  8
0
 62
     0
440
 16777216
370
    -2
100
AcDbLine
 10
541.2884307384556
 20
502.2731313177806
 30
0.0
 11
516.2884307384556
 21
502.2731313177806
 31
0.0
  0
SOLID
  5
4C1
330
4B1
100
AcDbEntity
  8
0
 62
     0
440
 16777216
100
AcDbTrace
 10
541.2884307384556
 20
502.6897979844473
 30
0.0
 11
541.2884307384556
 21
501.8564646511141
 31
0.0
 12
543.7884307384556
 22
502.2731313177806
 32
0.0
 13
543.7884307384556
 23
502.2731313177806
 33
0.0
  0
SOLID
  5
4C2
330
4B1
100
AcDbEntity
  8
0
 62
     0
440
 16777216
100
AcDbTrace
 10
516.2884307384556
 20
502.6897979844473
 30
0.0
 11
516.2884307384556
 21
501.8564646511141
 31
0.0
 12
513.7884307384559
 22
502.2731313177806
 32
0.0
 13
513.7884307384559
 23
502.2731313177806
 33
0.0
  0
MTEXT
  5
4C3
330
4B1
100
AcDbEntity
  8
0
 62
     0
440
 16777216
100
AcDbMText
 10
528.7884307384556
 20
504.1481313177808
 30
0.0
 40
2.5
 41
0.0
 46
0.0
 71
     5
 72
     1
  1
30
 73
     1
 44
1.0
  0
POINT
  5
4C4
330
4B1
100
AcDbEntity
  8
Defpoints
 62
     0
440
 16777216
100
AcDbPoint
 10
543.7884307384556
 20
492.8165608996883
 30
0.0
  0
POINT
  5
4C5
330
4B1
100
AcDbEntity
  8
Defpoints
 62
     0
440
 16777216
100
AcDbPoint
 10
513.7884307384559
 20
492.8165608996883
 30
0.0
  0
POINT
  5
4C6
330
4B1
100
AcDbEntity
  8
Defpoints
 62
     0
440
 16777216
100
AcDbPoint
 10
513.7884307384559
 20
502.2731313177806
 30
0.0
  0
ENDBLK
  5
4BC
330
4B1
100
AcDbEntity
  8
0
100
AcDbBlockEnd
  0
BLOCK
  5
4D3
330
4C9
100
AcDbEntity
  8
0
100
AcDbBlockBegin
  2
*D8
 70
     1
 10
0.0
 20
0.0
 30
0.0
  3
*D8
  1

  0
LINE
  5
74D
330
4C9
100
AcDbEntity
  8
0
 62
     0
440
 16777216
370
    -2
100
AcDbLine
 10
544.4134307384557
 20
485.8165608996887
 30
0.0
 11
551.8326467527424
 21
485.8165608996887
 31
0.0
  0
LINE
  5
74E
330
4C9
100
AcDbEntity
  8
0
 62
     0
440
 16777216
370
    -2
100
AcDbLine
 10
541.4134307384557
 20
495.8165608996887
 30
0.0
 11
551.8326467527424
 21
495.8165608996887
 31
0.0
  0
LINE
  5
74F
330
4C9
100
AcDbEntity
  8
0
 62
     0
440
 16777216
370
    -2
100
AcDbLine
 10
550.5826467527424
 20
488.3165608996887
 30
0.0
 11
550.5826467527424
 21
493.3165608996887
 31
0.0
  0
SOLID
  5
750
330
4C9
100
AcDbEntity
  8
0
 62
     0
440
 16777216
100
AcDbTrace
 10
550.1659800860759
 20
488.3165608996887
 30
0.0
 11
550.9993134194091
 21
488.3165608996887
 31
0.0
 12
550.5826467527424
 22
485.8165608996887
 32
0.0
 13
550.5826467527424
 23
485.8165608996887
 33
0.0
  0
SOLID
  5
751
330
4C9
100
AcDbEntity
  8
0
 62
     0
440
 16777216
100
AcDbTrace
 10
550.1659800860759
 20
493.3165608996887
 30
0.0
 11
550.9993134194091
 21
493.3165608996887
 31
0.0
 12
550.5826467527424
 22
495.8165608996887
 32
0.0
 13
550.5826467527424
 23
495.8165608996887
 33
0.0
  0
MTEXT
  5
752
330
4C9
100
AcDbEntity
  8
0
 62
     0
440
 16777216
100
AcDbMText
 10
548.7076467527424
 20
490.8165608996883
 30
0.0
 40
2.5
 41
0.0
 46
0.0
 71
     5
 72
     1
  1
10
 11
0.0000000000000001
 21
1.0
 31
0.0
 73
     1
 44
1.0
  0
POINT
  5
753
330
4C9
100
AcDbEntity
  8
Defpoints
 62
     0
440
 16777216
100
AcDbPoint
 10
543.7884307384559
 20
485.8165608996887
 30
0.0
  0
POINT
  5
754
330
4C9
100
AcDbEntity
  8
Defpoints
 62
     0
440
 16777216
100
AcDbPoint
 10
540.7884307384557
 20
495.8165608996887
 30
0.0
  0
POINT
  5
755
330
4C9
100
AcDbEntity
  8
Defpoints
 62
     0
440
 16777216
100
AcDbPoint
 10
550.5826467527424
 20
495.8165608996887
 30
0.0
  0
ENDBLK
  5
4D4
330
4C9
100
AcDbEntity
  8
0
100
AcDbBlockEnd
  0
BLOCK
  5
4EB
330
4E1
100
AcDbEntity
  8
0
100
AcDbBlockBegin
  2
*D9
 70
     1
 10
0.0
 20
0.0
 30
0.0
  3
*D9
  1

  0
LINE
  5
756
330
4E1
100
AcDbEntity
  8
0
 62
     0
440
 16777216
370
    -2
100
AcDbLine
 10
529.4134307384559
 20
410.8165608996885
 30
0.0
 11
536.3799714118821
 21
410.8165608996885
 31
0.0
  0
LINE
  5
757
330
4E1
100
AcDbEntity
  8
0
 62
     0
440
 16777216
370
    -2
100
AcDbLine
 10
526.4134307384559
 20
400.8165608996884
 30
0.0
 11
536.3799714118821
 21
400.8165608996884
 31
0.0
  0
LINE
  5
758
330
4E1
100
AcDbEntity
  8
0
 62
     0
440
 16777216
370
    -2
100
AcDbLine
 10
535.1299714118821
 20
408.3165608996885
 30
0.0
 11
535.1299714118821
 21
403.3165608996886
 31
0.0
  0
SOLID
  5
759
330
4E1
100
AcDbEntity
  8
0
 62
     0
440
 16777216
100
AcDbTrace
 10
534.7133047452155
 20
408.3165608996885
 30
0.0
 11
535.5466380785486
 21
408.3165608996885
 31
0.0
 12
535.1299714118821
 22
410.8165608996885
 32
0.0
 13
535.1299714118821
 23
410.8165608996885
 33
0.0
  0
SOLID
  5
75A
330
4E1
100
AcDbEntity
  8
0
 62
     0
440
 16777216
100
AcDbTrace
 10
534.7133047452155
 20
403.3165608996886
 30
0.0
 11
535.5466380785486
 21
403.3165608996886
 31
0.0
 12
535.1299714118821
 22
400.8165608996884
 32
0.0
 13
535.1299714118821
 23
400.8165608996884
 33
0.0
  0
MTEXT
  5
75B
330
4E1
100
AcDbEntity
  8
0
 62
     0
440
 16777216
100
AcDbMText
 10
533.2549714118821
 20
405.8165608996882
 30
0.0
 40
2.5
 41
0.0
 46
0.0
 71
     5
 72
     1
  1
10
 11
0.0000000000000001
 21
1.0
 31
0.0
 73
     1
 44
1.0
  0
POINT
  5
75C
330
4E1
100
AcDbEntity
  8
Defpoints
 62
     0
440
 16777216
100
AcDbPoint
 10
528.7884307384557
 20
410.8165608996885
 30
0.0
  0
POINT
  5
75D
330
4E1
100
AcDbEntity
  8
Defpoints
 62
     0
440
 16777216
100
AcDbPoint
 10
525.7884307384557
 20
400.8165608996884
 30
0.0
  0
POINT
  5
75E
330
4E1
100
AcDbEntity
  8
Defpoints
 62
     0
440
 16777216
100
AcDbPoint
 10
535.1299714118821
 20
400.8165608996884
 30
0.0
  0
ENDBLK
  5
4EC
330
4E1
100
AcDbEntity
  8
0
100
AcDbBlockEnd
  0
BLOCK
  5
503
330
4F9
100
AcDbEntity
  8
0
100
AcDbBlockBegin
  2
*D10
 70
     1
 10
0.0
 20
0.0
 30
0.0
  3
*D10
  1

  0
LINE
  5
5A6
330
4F9
100
AcDbEntity
  8
0
 62
     0
440
 16777216
370
    -2
100
AcDbLine
 10
498.7884307384558
 20
467.4415608996883
 30
0.0
 11
498.7884307384558
 21
503.5231313177808
 31
0.0
  0
LINE
  5
5A7
330
4F9
100
AcDbEntity
  8
0
 62
     0
440
 16777216
370
    -2
100
AcDbLine
 10
513.7884307384559
 20
494.0665608996885
 30
0.0
 11
513.7884307384559
 21
503.5231313177808
 31
0.0
  0
LINE
  5
5A8
330
4F9
100
AcDbEntity
  8
0
 62
     0
440
 16777216
370
    -2
100
AcDbLine
 10
501.2884307384558
 20
502.2731313177808
 30
0.0
 11
511.2884307384558
 21
502.2731313177808
 31
0.0
  0
SOLID
  5
5A9
330
4F9
100
AcDbEntity
  8
0
 62
     0
440
 16777216
100
AcDbTrace
 10
501.2884307384558
 20
502.6897979844473
 30
0.0
 11
501.2884307384558
 21
501.8564646511141
 31
0.0
 12
498.7884307384558
 22
502.2731313177808
 32
0.0
 13
498.7884307384558
 23
502.2731313177808
 33
0.0
  0
SOLID
  5
5AA
330
4F9
100
AcDbEntity
  8
0
 62
     0
440
 16777216
100
AcDbTrace
 10
511.2884307384558
 20
502.6897979844473
 30
0.0
 11
511.2884307384558
 21
501.8564646511141
 31
0.0
 12
513.7884307384559
 22
502.2731313177808
 32
0.0
 13
513.7884307384559
 23
502.2731313177808
 33
0.0
  0
MTEXT
  5
5AB
330
4F9
100
AcDbEntity
  8
0
 62
     0
440
 16777216
100
AcDbMText
 10
506.2884307384559
 20
504.1481313177808
 30
0.0
 40
2.5
 41
0.0
 46
0.0
 71
     5
 72
     1
  1
15
 73
     1
 44
1.0
  0
POINT
  5
5AC
330
4F9
100
AcDbEntity
  8
Defpoints
 62
     0
440
 16777216
100
AcDbPoint
 10
498.7884307384558
 20
466.8165608996885
 30
0.0
  0
POINT
  5
5AD
330
4F9
100
AcDbEntity
  8
Defpoints
 62
     0
440
 16777216
100
AcDbPoint
 10
513.7884307384559
 20
493.4415608996885
 30
0.0
  0
POINT
  5
5AE
330
4F9
100
AcDbEntity
  8
Defpoints
 62
     0
440
 16777216
100
AcDbPoint
 10
513.7884307384559
 20
502.2731313177808
 30
0.0
  0
ENDBLK
  5
504
330
4F9
100
AcDbEntity
  8
0
100
AcDbBlockEnd
  0
BLOCK
  5
51B
330
511
100
AcDbEntity
  8
0
100
AcDbBlockBegin
  2
*D11
 70
     1
 10
0.0
 20
0.0
 30
0.0
  3
*D11
  1

  0
LINE
  5
51E
330
511
100
AcDbEntity
  8
0
 62
     0
440
 16777216
370
    -2
100
AcDbLine
 10
498.7884307384556
 20
403.1915608996883
 30
0.0
 11
498.7884307384556
 21
392.8363328441907
 31
0.0
  0
LINE
  5
51F
330
511
100
AcDbEntity
  8
0
 62
     0
440
 16777216
370
    -2
100
AcDbLine
 10
528.7884307384556
 20
403.1915608996883
 30
0.0
 11
528.7884307384556
 21
392.8363328441907
 31
0.0
  0
LINE
  5
520
330
511
100
AcDbEntity
  8
0
 62
     0
440
 16777216
370
    -2
100
AcDbLine
 10
501.2884307384556
 20
394.0863328441907
 30
0.0
 11
526.2884307384556
 21
394.0863328441907
 31
0.0
  0
SOLID
  5
521
330
511
100
AcDbEntity
  8
0
 62
     0
440
 16777216
100
AcDbTrace
 10
501.2884307384556
 20
394.5029995108574
 30
0.0
 11
501.2884307384556
 21
393.6696661775241
 31
0.0
 12
498.7884307384556
 22
394.0863328441907
 32
0.0
 13
498.7884307384556
 23
394.0863328441907
 33
0.0
  0
SOLID
  5
522
330
511
100
AcDbEntity
  8
0
 62
     0
440
 16777216
100
AcDbTrace
 10
526.2884307384556
 20
394.5029995108574
 30
0.0
 11
526.2884307384556
 21
393.6696661775241
 31
0.0
 12
528.7884307384556
 22
394.0863328441907
 32
0.0
 13
528.7884307384556
 23
394.0863328441907
 33
0.0
  0
MTEXT
  5
523
330
511
100
AcDbEntity
  8
0
 62
     0
440
 16777216
100
AcDbMText
 10
513.7884307384556
 20
395.9613328441907
 30
0.0
 40
2.5
 41
0.0
 46
0.0
 71
     5
 72
     1
  1
30
 73
     1
 44
1.0
  0
POINT
  5
524
330
511
100
AcDbEntity
  8
Defpoints
 62
     0
440
 16777216
100
AcDbPoint
 10
498.7884307384556
 20
403.8165608996883
 30
0.0
  0
POINT
  5
525
330
511
100
AcDbEntity
  8
Defpoints
 62
     0
440
 16777216
100
AcDbPoint
 10
528.7884307384556
 20
403.8165608996883
 30
0.0
  0
POINT
  5
526
330
511
100
AcDbEntity
  8
Defpoints
 62
     0
440
 16777216
100
AcDbPoint
 10
528.7884307384556
 20
394.0863328441907
 30
0.0
  0
ENDBLK
  5
51C
330
511
100
AcDbEntity
  8
0
100
AcDbBlockEnd
  0
BLOCK
  5
533
330
529
100
AcDbEntity
  8
0
100
AcDbBlockBegin
  2
*D12
 70
     1
 10
0.0
 20
0.0
 30
0.0
  3
*D12
  1

  0
LINE
  5
696
330
529
100
AcDbEntity
  8
0
 62
     0
440
 16777216
370
    -2
100
AcDbLine
 10
516.1634307384558
 20
495.8165608996885
 30
0.0
 11
490.9538844887648
 21
495.8165608996885
 31
0.0
  0
LINE
  5
697
330
529
100
AcDbEntity
  8
0
 62
     0
440
 16777216
370
    -2
100
AcDbLine
 10
500.4598559039447
 20
470.8909947544491
 30
0.0
 11
490.9538844887648
 21
470.8909947544491
 31
0.0
  0
LINE
  5
698
330
529
100
AcDbEntity
  8
0
 62
     0
440
 16777216
370
    -2
100
AcDbLine
 10
492.2038844887648
 20
493.3165608996885
 30
0.0
 11
492.2038844887648
 21
473.390994754449
 31
0.0
  0
SOLID
  5
699
330
529
100
AcDbEntity
  8
0
 62
     0
440
 16777216
100
AcDbTrace
 10
491.7872178220981
 20
493.3165608996885
 30
0.0
 11
492.6205511554315
 21
493.3165608996885
 31
0.0
 12
492.2038844887648
 22
495.8165608996885
 32
0.0
 13
492.2038844887648
 23
495.8165608996885
 33
0.0
  0
SOLID
  5
69A
330
529
100
AcDbEntity
  8
0
 62
     0
440
 16777216
100
AcDbTrace
 10
491.7872178220981
 20
473.390994754449
 30
0.0
 11
492.6205511554315
 21
473.390994754449
 31
0.0
 12
492.2038844887648
 22
470.8909947544491
 32
0.0
 13
492.2038844887648
 23
470.8909947544491
 33
0.0
  0
MTEXT
  5
69B
330
529
100
AcDbEntity
  8
0
 62
     0
440
 16777216
100
AcDbMText
 10
490.3288844887647
 20
483.3537778270687
 30
0.0
 40
2.5
 41
0.0
 46
0.0
 71
     5
 72
     1
  1
26
 11
0.0000000000000001
 21
1.0
 31
0.0
 73
     1
 44
1.0
  0
POINT
  5
69C
330
529
100
AcDbEntity
  8
Defpoints
 62
     0
440
 16777216
100
AcDbPoint
 10
516.7884307384556
 20
495.8165608996885
 30
0.0
  0
POINT
  5
69D
330
529
100
AcDbEntity
  8
Defpoints
 62
     0
440
 16777216
100
AcDbPoint
 10
501.0848559039446
 20
470.8909947544491
 30
0.0
  0
POINT
  5
69E
330
529
100
AcDbEntity
  8
Defpoints
 62
     0
440
 16777216
100
AcDbPoint
 10
492.2038844887648
 20
470.8909947544491
 30
0.0
  0
ENDBLK
  5
534
330
529
100
AcDbEntity
  8
0
100
AcDbBlockEnd
  0
BLOCK
  5
55C
330
552
100
AcDbEntity
  8
0
100
AcDbBlockBegin
  2
*D13
 70
     1
 10
0.0
 20
0.0
 30
0.0
  3
*D13
  1

  0
LINE
  5
6CE
330
552
100
AcDbEntity
  8
0
 62
     0
440
 16777216
370
    -2
100
AcDbLine
 10
383.9481489256143
 20
487.8165608996885
 30
0.0
 11
424.0795682677353
 21
487.8165608996885
 31
0.0
  0
LINE
  5
6CF
330
552
100
AcDbEntity
  8
0
 62
     0
440
 16777216
370
    -2
100
AcDbLine
 10
370.5315377353232
 20
408.8165608996883
 30
0.0
 11
424.0795682677353
 21
408.8165608996883
 31
0.0
  0
LINE
  5
6D0
330
552
100
AcDbEntity
  8
0
 62
     0
440
 16777216
370
    -2
100
AcDbLine
 10
422.8295682677353
 20
485.3165608996883
 30
0.0
 11
422.8295682677353
 21
411.3165608996885
 31
0.0
  0
SOLID
  5
6D1
330
552
100
AcDbEntity
  8
0
 62
     0
440
 16777216
100
AcDbTrace
 10
422.4129016010687
 20
485.3165608996883
 30
0.0
 11
423.2462349344021
 21
485.3165608996883
 31
0.0
 12
422.8295682677353
 22
487.8165608996885
 32
0.0
 13
422.8295682677353
 23
487.8165608996885
 33
0.0
  0
SOLID
  5
6D2
330
552
100
AcDbEntity
  8
0
 62
     0
440
 16777216
100
AcDbTrace
 10
422.4129016010687
 20
411.3165608996885
 30
0.0
 11
423.2462349344021
 21
411.3165608996885
 31
0.0
 12
422.8295682677353
 22
408.8165608996883
 32
0.0
 13
422.8295682677353
 23
408.8165608996883
 33
0.0
  0
MTEXT
  5
6D3
330
552
100
AcDbEntity
  8
0
 62
     0
440
 16777216
100
AcDbMText
 10
420.9545682677353
 20
448.3165608996886
 30
0.0
 40
2.5
 41
0.0
 46
0.0
 71
     5
 72
     1
  1
T+1
 11
0.0000000000000001
 21
1.0
 31
0.0
 73
     1
 44
1.0
  0
POINT
  5
6D4
330
552
100
AcDbEntity
  8
Defpoints
 62
     0
440
 16777216
100
AcDbPoint
 10
383.3231489256143
 20
487.8165608996885
 30
0.0
  0
POINT
  5
6D5
330
552
100
AcDbEntity
  8
Defpoints
 62
     0
440
 16777216
100
AcDbPoint
 10
369.9065377353232
 20
408.8165608996883
 30
0.0
  0
POINT
  5
6D6
330
552
100
AcDbEntity
  8
Defpoints
 62
     0
440
 16777216
100
AcDbPoint
 10
422.8295682677353
 20
408.8165608996883
 30
0.0
  0
ENDBLK
  5
55D
330
552
100
AcDbEntity
  8
0
100
AcDbBlockEnd
  0
BLOCK
  5
569
330
55F
100
AcDbEntity
  8
0
100
AcDbBlockBegin
  2
*D14
 70
     1
 10
0.0
 20
0.0
 30
0.0
  3
*D14
  1

  0
LINE
  5
7B5
330
55F
100
AcDbEntity
  8
0
 62
     0
440
 16777216
370
    -2
100
AcDbLine
 10
544.4134307384558
 20
485.8165608996889
 30
0.0
 11
551.8326467527424
 21
485.8165608996889
 31
0.0
  0
LINE
  5
7B6
330
55F
100
AcDbEntity
  8
0
 62
     0
440
 16777216
370
    -2
100
AcDbLine
 10
529.4134307384559
 20
410.8165608996887
 30
0.0
 11
551.8326467527424
 21
410.8165608996887
 31
0.0
  0
LINE
  5
7B7
330
55F
100
AcDbEntity
  8
0
 62
     0
440
 16777216
370
    -2
100
AcDbLine
 10
550.5826467527424
 20
483.3165608996889
 30
0.0
 11
550.5826467527424
 21
413.3165608996887
 31
0.0
  0
SOLID
  5
7B8
330
55F
100
AcDbEntity
  8
0
 62
     0
440
 16777216
100
AcDbTrace
 10
550.1659800860758
 20
483.3165608996889
 30
0.0
 11
550.9993134194091
 21
483.3165608996889
 31
0.0
 12
550.5826467527424
 22
485.8165608996889
 32
0.0
 13
550.5826467527424
 23
485.8165608996889
 33
0.0
  0
SOLID
  5
7B9
330
55F
100
AcDbEntity
  8
0
 62
     0
440
 16777216
100
AcDbTrace
 10
550.1659800860758
 20
413.3165608996887
 30
0.0
 11
550.9993134194091
 21
413.3165608996887
 31
0.0
 12
550.5826467527424
 22
410.8165608996887
 32
0.0
 13
550.5826467527424
 23
410.8165608996887
 33
0.0
  0
MTEXT
  5
7BA
330
55F
100
AcDbEntity
  8
0
 62
     0
440
 16777216
100
AcDbMText
 10
548.7076467527424
 20
448.3165608996884
 30
0.0
 40
2.5
 41
0.0
 46
0.0
 71
     5
 72
     1
  1
T+1
 11
0.0000000000000001
 21
1.0
 31
0.0
 73
     1
 44
1.0
  0
POINT
  5
7BB
330
55F
100
AcDbEntity
  8
Defpoints
 62
     0
440
 16777216
100
AcDbPoint
 10
543.7884307384559
 20
485.8165608996889
 30
0.0
  0
POINT
  5
7BC
330
55F
100
AcDbEntity
  8
Defpoints
 62
     0
440
 16777216
100
AcDbPoint
 10
528.7884307384558
 20
410.8165608996887
 30
0.0
  0
POINT
  5
7BD
330
55F
100
AcDbEntity
  8
Defpoints
 62
     0
440
 16777216
100
AcDbPoint
 10
550.5826467527424
 20
410.8165608996887
 30
0.0
  0
ENDBLK
  5
56A
330
55F
100
AcDbEntity
  8
0
100
AcDbBlockEnd
  0
BLOCK
  5
61D
330
61C
100
AcDbEntity
  8
0
100
AcDbBlockBegin
  2
2
 70
     0
 10
0.0
 20
0.0
 30
0.0
  3
2
  1

  0
SPLINE
  5
61E
330
61C
100
AcDbEntity
  8
Hladina1
100
AcDbSpline
210
0.0
220
0.0
230
1.0
 70
  1064
 71
     3
 72
    10
 73
     6
 74
     4
 42
0.000000001
 43
0.0000000001
 44
0.0000000001
 40
0.0
 40
0.0
 40
0.0
 40
0.0
 40
3.225450419445178
 40
6.527090493113465
 40
7.920027442241765
 40
7.920027442241765
 40
7.920027442241765
 40
7.920027442241765
 10
586.5799027234193
 20
501.1999875659141
 30
0.0
 10
585.5234841714193
 20
500.8301563315066
 30
0.0
 10
583.3856929823386
 20
500.0817579312073
 30
0.0
 10
580.8013305405991
 20
501.6574140114637
 30
0.0
 10
579.2908377501573
 20
501.1098869791008
 30
0.0
 10
578.8426565383079
 20
500.9474291835804
 30
0.0
 11
586.5799027234193
 21
501.1999875659141
 31
0.0
 11
583.4125894605363
 21
500.5903507042789
 31
0.0
 11
580.1890825810946
 21
501.3043749155238
 31
0.0
 11
578.8426565383079
 21
500.9474291835804
 31
0.0
  0
SPLINE
  5
61F
330
61C
100
AcDbEntity
  8
Hladina1
100
AcDbSpline
210
0.0
220
0.0
230
1.0
 70
  1064
 71
     3
 72
    10
 73
     6
 74
     4
 42
0.000000001
 43
0.0000000001
 44
0.0000000001
 40
0.0
 40
0.0
 40
0.0
 40
0.0
 40
4.119626230339893
 40
7.183793575730385
 40
8.991701210957508
 40
8.991701210957508
 40
8.991701210957508
 40
8.991701210957508
 10
587.175414659165
 20
502.3246115415782
 30
0.0
 10
585.8441197821673
 20
501.7533674940129
 30
0.0
 10
583.5226112156029
 20
500.7572335999108
 30
0.0
 10
580.5669564611492
 20
502.3916954012557
 30
0.0
 10
579.014178904442
 20
501.7467594539892
 30
0.0
 10
578.4379812039246
 20
501.5074395280985
 30
0.0
 11
587.175414659165
 21
502.3246115415782
 31
0.0
 11
583.1684183597957
 21
501.3678979300173
 31
0.0
 11
580.173282660344
 21
502.0146464610768
 31
0.0
 11
578.4379812039246
 21
501.5074395280985
 31
0.0
  0
SPLINE
  5
620
330
61C
100
AcDbEntity
  8
Hladina1
100
AcDbSpline
210
0.0
220
0.0
230
1.0
 70
  1064
 71
     3
 72
    10
 73
     6
 74
     4
 42
0.000000001
 43
0.0000000001
 44
0.0000000001
 40
0.0
 40
0.0
 40
0.0
 40
0.0
 40
1.120719595214306
 40
2.660177466131623
 40
4.258068310536675
 40
4.258068310536675
 40
4.258068310536675
 40
4.258068310536675
 10
582.9912092941007
 20
502.4828038448628
 30
0.0
 10
583.3539910429269
 20
502.5736294581182
 30
0.0
 10
584.2151019197889
 20
502.7892161675516
 30
0.0
 10
585.6614862193861
 20
502.7927754569231
 30
0.0
 10
586.6645445410866
 20
502.4825918981313
 30
0.0
 10
587.175414659165
 20
502.3246115415782
 30
0.0
 11
582.9912092941007
 21
502.4828038448628
 31
0.0
 11
584.0870979318542
 21
502.7174109733564
 31
0.0
 11
585.6265558027716
 21
502.7174109733564
 31
0.0
 11
587.175414659165
 21
502.3246115415782
 31
0.0
  0
SPLINE
  5
621
330
61C
100
AcDbEntity
  8
Hladina1
100
AcDbSpline
210
0.0
220
0.0
230
1.0
 70
  1064
 71
     3
 72
    10
 73
     6
 74
     4
 42
0.000000001
 43
0.0000000001
 44
0.0000000001
 40
0.0
 40
0.0
 40
0.0
 40
0.0
 40
2.06561349849705
 40
4.420060440849828
 40
5.721999227124987
 40
5.721999227124987
 40
5.721999227124987
 40
5.721999227124987
 10
579.6056277115027
 20
492.4993572272692
 30
0.0
 10
580.2556934006174
 20
493.0412622100194
 30
0.0
 10
581.6467230576662
 20
494.2008464104019
 30
0.0
 10
582.9251249947101
 20
491.365363358908
 30
0.0
 10
584.0885832849316
 20
492.1486166178753
 30
0.0
 10
584.502858907548
 20
492.4275116450989
 30
0.0
 11
579.6056277115027
 21
492.4993572272692
 31
0.0
 11
581.4677014464417
 21
493.3934716107926
 31
0.0
 11
583.3039707158102
 21
491.9198585086768
 31
0.0
 11
584.502858907548
 21
492.4275116450989
 31
0.0
  0
SPLINE
  5
622
330
61C
100
AcDbEntity
  8
Hladina1
100
AcDbSpline
210
0.0
220
0.0
230
1.0
 70
  1064
 71
     3
 72
    10
 73
     6
 74
     4
 42
0.000000001
 43
0.0000000001
 44
0.0000000001
 40
0.0
 40
0.0
 40
0.0
 40
0.0
 40
2.065613498496874
 40
4.420060440849617
 40
5.721999227124924
 40
5.721999227124924
 40
5.721999227124924
 40
5.721999227124924
 10
579.6056277115028
 20
493.7144548716296
 30
0.0
 10
580.2556934006174
 20
494.2563598543798
 30
0.0
 10
581.6467230576662
 20
495.415944054762
 30
0.0
 10
582.9251249947102
 20
492.5804610032683
 30
0.0
 10
584.0885832849319
 20
493.3637142622357
 30
0.0
 10
584.5028589075481
 20
493.6426092894593
 30
0.0
 11
579.6056277115028
 21
493.7144548716296
 31
0.0
 11
581.4677014464417
 21
494.6085692551529
 31
0.0
 11
583.3039707158102
 21
493.1349561530371
 31
0.0
 11
584.5028589075481
 21
493.6426092894593
 31
0.0
  0
ARC
  5
623
330
61C
100
AcDbEntity
  8
Hladina1
100
AcDbCircle
 10
576.8127226108622
 20
501.8251906368005
 30
0.0
 40
0.4131931418174576
100
AcDbArc
 50
113.573584959716
 51
255.2322784542627
  0
LINE
  5
624
330
61C
100
AcDbEntity
  8
Hladina1
100
AcDbLine
 10
588.8615868630872
 20
500.9108499027951
 30
0.0
 11
588.8624981441696
 21
501.1762069361553
 31
0.0
  0
ARC
  5
625
330
61C
100
AcDbEntity
  8
Hladina1
100
AcDbCircle
 10
582.2323996979568
 20
495.9997978923967
 30
0.0
 40
3.190805834280607
100
AcDbArc
 50
26.30718737027455
 51
145.4096035720104
  0
ARC
  5
626
330
61C
100
AcDbEntity
  8
Hladina1
100
AcDbCircle
 10
582.4394920610197
 20
496.2692993959525
 30
0.0
 40
3.804399409392087
100
AcDbArc
 50
44.92450934724028
 51
128.7262185738849
  0
ARC
  5
627
330
61C
100
AcDbEntity
  8
Hladina1
100
AcDbCircle
 10
572.7189574023276
 20
495.3023348260303
 30
0.0
 40
8.328672247942597
100
AcDbArc
 50
28.19394529003102
 51
42.67121992977064
  0
ARC
  5
628
330
61C
100
AcDbEntity
  8
Hladina1
100
AcDbCircle
 10
588.6341025813162
 20
498.2872637271921
 30
0.0
 40
3.564224630525078
100
AcDbArc
 50
81.19889616641261
 51
169.1879473822699
  0
SPLINE
  5
629
330
61C
100
AcDbEntity
  8
Hladina1
100
AcDbSpline
210
0.0
220
0.0
230
1.0
 70
  1064
 71
     3
 72
    12
 73
     8
 74
     6
 42
0.000000001
 43
0.0000000001
 44
0.0000000001
 40
0.0
 40
0.0
 40
0.0
 40
0.0
 40
0.5487024045061145
 40
0.9598156116507826
 40
1.240717391112101
 40
1.514184820930633
 40
1.563476079407914
 40
1.563476079407914
 40
1.563476079407914
 40
1.563476079407914
 10
577.1484697044236
 20
494.4249778366425
 30
0.0
 10
577.1308228543406
 20
494.6321346921731
 30
0.0
 10
577.0999541683882
 20
494.9945030404178
 30
0.0
 10
576.5478598947815
 20
495.0516281778614
 30
0.0
 10
576.3777071006857
 20
494.7309112030128
 30
0.0
 10
576.3955872091539
 20
494.5270653848726
 30
0.0
 10
576.4190580551157
 20
494.4221206831056
 30
0.0
 10
576.4226424901037
 20
494.4060936740482
 30
0.0
 11
577.1484697044236
 21
494.4249778366425
 31
0.0
 11
576.9660364187528
 21
494.9424644789726
 31
0.0
 11
576.5555549997973
 21
494.9652476697304
 31
0.0
 11
576.4056972219402
 21
494.7276588313555
 31
0.0
 11
576.4122136287421
 21
494.4542690517113
 31
0.0
 11
576.4226424901037
 21
494.4060936740482
 31
0.0
  0
SPLINE
  5
62A
330
61C
100
AcDbEntity
  8
Hladina1
100
AcDbSpline
210
0.0
220
0.0
230
1.0
 70
     8
 71
     3
 72
    13
 73
     9
 74
     0
 42
0.000000001
 43
0.0000000001
 40
0.6661205545958558
 40
0.6661205545958558
 40
0.6661205545958558
 40
0.6661205545958558
 40
0.9878869891143956
 40
1.41979456747244
 40
1.9102422773456
 40
2.418829439147268
 40
3.096989347819317
 40
3.875274942031108
 40
3.875274942031108
 40
3.875274942031108
 40
3.875274942031108
 10
578.6056277115018
 20
492.5464101620661
 30
0.0
 10
578.501860227303
 20
492.5736036018386
 30
0.0
 10
578.2449132618793
 20
492.6085782317526
 30
0.0
 10
577.8466327328832
 20
492.6981949856704
 30
0.0
 10
577.359495882097
 20
492.7659371357046
 30
0.0
 10
576.9243204464051
 20
493.1355241943178
 30
0.0
 10
576.4631059893519
 20
493.6363950137963
 30
0.0
 10
576.4367346368487
 20
494.1380321699432
 30
0.0
 10
576.4226424901037
 20
494.4060936740482
 30
0.0
  0
SPLINE
  5
62B
330
61C
100
AcDbEntity
  8
Hladina1
100
AcDbSpline
210
0.0
220
0.0
230
1.0
 70
  1064
 71
     3
 72
    10
 73
     6
 74
     4
 42
0.000000001
 43
0.0000000001
 44
0.0000000001
 40
0.0
 40
0.0
 40
0.0
 40
0.0
 40
0.8755136827638514
 40
1.521916528778687
 40
1.994752976798551
 40
1.994752976798551
 40
1.994752976798551
 40
1.994752976798551
 10
577.1484697044236
 20
494.4249778366425
 30
0.0
 10
577.2348930742102
 20
494.1206953901434
 30
0.0
 10
577.3851239130201
 20
493.5917573576935
 30
0.0
 10
578.0839283451834
 20
493.401535147246
 30
0.0
 10
578.4463902019081
 20
493.3386639297697
 30
0.0
 10
578.599516685038
 20
493.3121032082935
 30
0.0
 11
577.1484697044236
 21
494.4249778366425
 31
0.0
 11
577.5344648356267
 21
493.6391458142648
 31
0.0
 11
578.1348487716853
 21
493.3996134184204
 31
0.0
 11
578.599516685038
 21
493.3121032082935
 31
0.0
  0
SPLINE
  5
62C
330
61C
100
AcDbEntity
  8
Hladina1
100
AcDbSpline
210
0.0
220
0.0
230
1.0
 70
  1064
 71
     3
 72
    10
 73
     6
 74
     4
 42
0.000000001
 43
0.0000000001
 44
0.0000000001
 40
0.0
 40
0.0
 40
0.0
 40
0.0
 40
0.8755136827638514
 40
1.521916528778687
 40
1.99475297679853
 40
1.99475297679853
 40
1.99475297679853
 40
1.99475297679853
 10
577.1484697044236
 20
497.9038299787013
 30
0.0
 10
577.2348930742102
 20
497.5995475322021
 30
0.0
 10
577.3851239130201
 20
497.0706094997523
 30
0.0
 10
578.0839283451836
 20
496.8803872893047
 30
0.0
 10
578.4463902019081
 20
496.8175160718287
 30
0.0
 10
578.599516685038
 20
496.7909553503524
 30
0.0
 11
577.1484697044236
 21
497.9038299787013
 31
0.0
 11
577.5344648356267
 21
497.1179979563236
 31
0.0
 11
578.1348487716853
 21
496.8784655604792
 31
0.0
 11
578.599516685038
 21
496.7909553503524
 31
0.0
  0
SPLINE
  5
62D
330
61C
100
AcDbEntity
  8
Hladina1
100
AcDbSpline
210
0.0
220
0.0
230
1.0
 70
     8
 71
     3
 72
    13
 73
     9
 74
     0
 42
0.000000001
 43
0.0000000001
 40
0.666120554595736
 40
0.666120554595736
 40
0.666120554595736
 40
0.666120554595736
 40
0.9878869891143956
 40
1.41979456747244
 40
1.9102422773456
 40
2.418829439147268
 40
3.096989347819317
 40
3.875274942031108
 40
3.875274942031108
 40
3.875274942031108
 40
3.875274942031108
 10
578.6056277115018
 20
496.0252623041249
 30
0.0
 10
578.5018602273031
 20
496.0524557438975
 30
0.0
 10
578.2449132618796
 20
496.0874303738115
 30
0.0
 10
577.8466327328832
 20
496.1770471277293
 30
0.0
 10
577.359495882097
 20
496.2447892777634
 30
0.0
 10
576.9243204464051
 20
496.6143763363767
 30
0.0
 10
576.4631059893519
 20
497.1152471558552
 30
0.0
 10
576.4367346368487
 20
497.6168843120021
 30
0.0
 10
576.4226424901037
 20
497.8849458161073
 30
0.0
  0
SPLINE
  5
62E
330
61C
100
AcDbEntity
  8
Hladina1
100
AcDbSpline
210
0.0
220
0.0
230
1.0
 70
  1064
 71
     3
 72
    12
 73
     8
 74
     6
 42
0.000000001
 43
0.0000000001
 44
0.0000000001
 40
0.0
 40
0.0
 40
0.0
 40
0.0
 40
0.5487024045063826
 40
0.9598156116510477
 40
1.24071739111227
 40
1.514184820930859
 40
1.563476079408139
 40
1.563476079408139
 40
1.563476079408139
 40
1.563476079408139
 10
577.1484697044236
 20
497.9038299787013
 30
0.0
 10
577.1308228543408
 20
498.1109868342321
 30
0.0
 10
577.0999541683884
 20
498.4733551824769
 30
0.0
 10
576.5478598947814
 20
498.5304803199204
 30
0.0
 10
576.3777071006857
 20
498.2097633450718
 30
0.0
 10
576.3955872091537
 20
498.0059175269318
 30
0.0
 10
576.4190580551157
 20
497.9009728251646
 30
0.0
 10
576.4226424901037
 20
497.8849458161073
 30
0.0
 11
577.1484697044236
 21
497.9038299787013
 31
0.0
 11
576.9660364187528
 21
498.4213166210317
 31
0.0
 11
576.5555549997973
 21
498.4440998117894
 31
0.0
 11
576.4056972219402
 21
498.2065109734147
 31
0.0
 11
576.4122136287421
 21
497.9331211937704
 31
0.0
 11
576.4226424901037
 21
497.8849458161073
 31
0.0
  0
SPLINE
  5
62F
330
61C
100
AcDbEntity
  8
Hladina1
100
AcDbSpline
210
0.0
220
0.0
230
1.0
 70
  1064
 71
     3
 72
    12
 73
     8
 74
     6
 42
0.000000001
 43
0.0000000001
 44
0.0000000001
 40
0.0
 40
0.0
 40
0.0
 40
0.0
 40
0.5487024045062218
 40
0.9598156116508711
 40
1.240717391111997
 40
1.514184820930418
 40
1.563476079407643
 40
1.563476079407643
 40
1.563476079407643
 40
1.563476079407643
 10
577.1545807308886
 20
491.4636822450382
 30
0.0
 10
577.1369338808056
 20
491.6708391005689
 30
0.0
 10
577.1060651948531
 20
492.0332074488136
 30
0.0
 10
576.5539709212466
 20
492.0903325862568
 30
0.0
 10
576.3838181271506
 20
491.7696156114084
 30
0.0
 10
576.4016982356192
 20
491.5657697932686
 30
0.0
 10
576.4251690815808
 20
491.4608250915013
 30
0.0
 10
576.4287535165688
 20
491.4447980824441
 30
0.0
 11
577.1545807308886
 21
491.4636822450382
 31
0.0
 11
576.9721474452177
 21
491.9811688873685
 31
0.0
 11
576.5616660262622
 21
492.0039520781258
 31
0.0
 11
576.4118082484052
 21
491.7663632397513
 31
0.0
 11
576.4183246552072
 21
491.4929734601071
 31
0.0
 11
576.4287535165688
 21
491.4447980824441
 31
0.0
  0
SPLINE
  5
630
330
61C
100
AcDbEntity
  8
Hladina1
100
AcDbSpline
210
0.0
220
0.0
230
1.0
 70
  1064
 71
     3
 72
    14
 73
    10
 74
     8
 42
0.000000001
 43
0.0000000001
 44
0.0000000001
 40
0.0
 40
0.0
 40
0.0
 40
0.0
 40
0.480313065724709
 40
0.9878869891142274
 40
1.419794567472317
 40
1.910242277345697
 40
2.418829439147264
 40
3.096989347819376
 40
3.875274942031147
 40
3.875274942031147
 40
3.875274942031147
 40
3.875274942031147
 10
579.1557262930539
 20
489.2186772846011
 30
0.0
 10
579.0399514277417
 20
489.3358946822241
 30
0.0
 10
578.8018307284105
 20
489.5769823191694
 30
0.0
 10
578.3105068161439
 20
489.633898528528
 30
0.0
 10
577.8527437593481
 20
489.7368993940662
 30
0.0
 10
577.3656069085618
 20
489.8046415441004
 30
0.0
 10
576.93043147287
 20
490.1742286027134
 30
0.0
 10
576.4692170158168
 20
490.6750994221919
 30
0.0
 10
576.4428456633139
 20
491.1767365783388
 30
0.0
 10
576.4287535165688
 20
491.4447980824441
 30
0.0
 11
579.1557262930539
 21
489.2186772846011
 31
0.0
 11
578.783878217265
 21
489.5226997338347
 31
0.0
 11
578.2914310384406
 21
489.6456918627407
 31
0.0
 11
577.8673783947031
 21
489.7276888845306
 31
0.0
 11
577.3912760740008
 21
489.8454408965813
 31
0.0
 11
576.9798255149249
 21
490.1443879463835
 31
0.0
 11
576.5611145626922
 21
490.6778502226605
 31
0.0
 11
576.4287535165688
 21
491.4447980824441
 31
0.0
  0
SPLINE
  5
631
330
61C
100
AcDbEntity
  8
Hladina1
100
AcDbSpline
210
0.0
220
0.0
230
1.0
 70
  1064
 71
     3
 72
    10
 73
     6
 74
     4
 42
0.000000001
 43
0.0000000001
 44
0.0000000001
 40
0.0
 40
0.0
 40
0.0
 40
0.0
 40
0.8755136827639516
 40
1.521916528778597
 40
1.99475297679838
 40
1.99475297679838
 40
1.99475297679838
 40
1.99475297679838
 10
577.1545807308886
 20
491.4636822450382
 30
0.0
 10
577.2410041006753
 20
491.1593997985391
 30
0.0
 10
577.3912349394852
 20
490.6304617660892
 30
0.0
 10
578.0900393716486
 20
490.4402395556417
 30
0.0
 10
578.4525012283729
 20
490.3773683381653
 30
0.0
 10
578.6056277115029
 20
490.350807616689
 30
0.0
 11
577.1545807308886
 21
491.4636822450382
 31
0.0
 11
577.5405758620919
 21
490.6778502226605
 31
0.0
 11
578.1409597981502
 21
490.438317826816
 31
0.0
 11
578.6056277115029
 21
490.350807616689
 31
0.0
  0
SPLINE
  5
632
330
61C
100
AcDbEntity
  8
Hladina1
100
AcDbSpline
210
0.0
220
0.0
230
1.0
 70
  1064
 71
     3
 72
    13
 73
     9
 74
     7
 42
0.000000001
 43
0.0000000001
 44
0.0000000001
 40
0.0
 40
0.0
 40
0.0
 40
0.0
 40
0.6429075011031752
 40
1.23018803759427
 40
1.649993712014052
 40
2.166399721602569
 40
2.616274431678315
 40
3.151093383853925
 40
3.151093383853925
 40
3.151093383853925
 40
3.151093383853925
 10
584.8759680645596
 20
489.2669074885471
 30
0.0
 10
585.082713127558
 20
489.3239230481602
 30
0.0
 10
585.4783148321514
 20
489.4330209499148
 30
0.0
 10
586.0297398992274
 20
489.4899462483781
 30
0.0
 10
586.5112924108794
 20
489.6400456848155
 30
0.0
 10
586.946730556886
 20
489.8629341360085
 30
0.0
 10
587.1424654692463
 20
490.3464757116531
 30
0.0
 10
587.2250096449928
 20
490.6614899003156
 30
0.0
 10
587.2698420545767
 20
490.8325842870874
 30
0.0
 11
584.8759680645596
 21
489.2669074885471
 31
0.0
 11
585.5004434535068
 21
489.4197490521808
 31
0.0
 11
586.0795063069198
 21
489.5176502285703
 31
0.0
 11
586.4803942176137
 21
489.6422523446621
 31
0.0
 11
586.9169184220907
 21
489.9181541127695
 31
0.0
 11
587.1218181378227
 21
490.3186579969688
 31
0.0
 11
587.2698420545767
 21
490.8325842870874
 31
0.0
  0
SPLINE
  5
633
330
61C
100
AcDbEntity
  8
Hladina1
100
AcDbSpline
210
0.0
220
0.0
230
1.0
 70
  1064
 71
     3
 72
    13
 73
     9
 74
     7
 42
0.000000001
 43
0.0000000001
 44
0.0000000001
 40
0.0
 40
0.0
 40
0.0
 40
0.0
 40
0.2246032353051721
 40
0.4343617040305123
 40
1.142630725824473
 40
2.029735772770001
 40
2.37094693845928
 40
2.889170422928246
 40
2.889170422928246
 40
2.889170422928246
 40
2.889170422928246
 10
585.5756072094607
 20
490.3243143074696
 30
0.0
 10
585.5998859159601
 20
490.2415665978529
 30
0.0
 10
585.6468386693895
 20
490.0815402469194
 30
0.0
 10
586.0860402643888
 20
490.1490908575795
 30
0.0
 10
586.6241537613775
 20
490.4857597393954
 30
0.0
 10
586.5269657265733
 20
491.4155200908435
 30
0.0
 10
587.2917451393306
 20
491.3867547045021
 30
0.0
 10
587.278081176182
 20
491.0410424796418
 30
0.0
 10
587.2698420545767
 20
490.8325842870874
 30
0.0
 11
585.5756072094607
 21
490.3243143074696
 31
0.0
 11
585.6805305716814
 21
490.1257250293858
 31
0.0
 11
585.8902890404067
 21
490.1257250293858
 31
0.0
 11
586.4613279357187
 21
490.5447233435516
 31
0.0
 11
586.8122643414937
 21
491.3594619540385
 31
0.0
 11
587.1527620966124
 21
491.3374088737491
 31
0.0
 11
587.2698420545767
 21
490.8325842870874
 31
0.0
  0
SPLINE
  5
634
330
61C
100
AcDbEntity
  8
Hladina1
100
AcDbSpline
210
0.0
220
0.0
230
1.0
 70
  1064
 71
     3
 72
    12
 73
     8
 74
     6
 42
0.000000001
 43
0.0000000001
 44
0.0000000001
 40
0.0
 40
0.0
 40
0.0
 40
0.0
 40
0.8682590907202168
 40
1.428020258692736
 40
2.490326501641835
 40
2.711762396106005
 40
4.07552894871755
 40
4.07552894871755
 40
4.07552894871755
 40
4.07552894871755
 10
585.5019412155107
 20
493.9196257949946
 30
0.0
 10
585.4455883735322
 20
493.5350893009105
 30
0.0
 10
585.3529052092091
 20
492.9026445506878
 30
0.0
 10
586.5485214623567
 20
493.1842309176038
 30
0.0
 10
586.0281262929554
 20
494.1732309942559
 30
0.0
 10
587.0137865851511
 20
494.4700582459427
 30
0.0
 10
586.9464552951504
 20
493.6775015233577
 30
0.0
 10
586.8885294690727
 20
492.9956565316956
 30
0.0
 11
585.5019412155107
 21
493.9196257949946
 31
0.0
 11
585.6206005129307
 21
493.0595131164728
 31
0.0
 11
586.1599775678826
 21
493.2091959737459
 31
0.0
 11
586.3661825228335
 21
494.2512967703881
 31
0.0
 11
586.5756701544212
 21
494.3230518229551
 31
0.0
 11
586.8885294690727
 21
492.9956565316956
 31
0.0
  0
ARC
  5
635
330
61C
100
AcDbEntity
  8
Hladina1
100
AcDbCircle
 10
585.6749980243383
 20
493.3268435267146
 30
0.0
 40
1.257912315318324
100
AcDbArc
 50
265.4681927024809
 51
344.7350435328164
  0
LINE
  5
636
330
61C
100
AcDbEntity
  8
Hladina1
100
AcDbLine
 10
584.5308236578205
 20
489.9886463635486
 30
0.0
 11
584.5059066411256
 21
492.4279862824429
 31
0.0
  0
LINE
  5
637
330
61C
100
AcDbEntity
  8
Hladina1
100
AcDbLine
 10
579.6056277115027
 20
489.8389019079453
 30
0.0
 11
579.6056277115027
 21
492.4993572272692
 31
0.0
  0
ARC
  5
638
330
61C
100
AcDbEntity
  8
Hladina1
100
AcDbCircle
 10
581.9575736532465
 20
493.5531939351791
 30
0.0
 40
4.396318343393377
100
AcDbArc
 50
237.6573900979629
 51
305.8255507653938
  0
LINE
  5
639
330
61C
100
AcDbEntity
  8
Hladina1
100
AcDbLine
 10
579.6056277115028
 20
493.7144548716296
 30
0.0
 11
579.6056277115027
 21
497.8112367688871
 31
0.0
  0
LINE
  5
63A
330
61C
100
AcDbEntity
  8
Hladina1
100
AcDbLine
 10
584.5028589075481
 20
493.6426092894593
 30
0.0
 11
585.0927364619208
 21
497.4139108542192
 31
0.0
  0
ARC
  5
63B
330
61C
100
AcDbEntity
  8
Hladina1
100
AcDbCircle
 10
582.8514655015087
 20
502.8537821189271
 30
0.0
 40
0.3964255382737756
100
AcDbArc
 50
140.0335420490604
 51
290.6408881337029
  0
ARC
  5
63C
330
61C
100
AcDbEntity
  8
Hladina1
100
AcDbCircle
 10
591.3374344077801
 20
500.1058872683854
 30
0.0
 40
0.3
100
AcDbArc
 50
266.2983149117772
 51
12.96565150846524
  0
ARC
  5
63D
330
61C
100
AcDbEntity
  8
Hladina1
100
AcDbCircle
 10
591.4114113151144
 20
500.1011012115941
 30
0.0
 40
0.3
100
AcDbArc
 50
213.4848876457069
 51
266.2983149117561
  0
ARC
  5
63E
330
61C
100
AcDbEntity
  8
Hladina1
100
AcDbCircle
 10
576.8034247481165
 20
499.9550254597174
 30
0.0
 40
2.254276878941726
100
AcDbArc
 50
43.52356013104827
 51
93.96684357026023
  0
LINE
  5
63F
330
61C
100
AcDbEntity
  8
Hladina1
100
AcDbLine
 10
591.318065910602
 20
499.8065131524082
 30
0.0
 11
591.3920428179364
 21
499.8017270956169
 31
0.0
  0
ARC
  5
640
330
61C
100
AcDbEntity
  8
Hladina1
100
AcDbCircle
 10
585.4346066460602
 20
496.5226914053551
 30
0.0
 40
7.190718926246167
100
AcDbArc
 50
30.50869514896717
 51
113.6710811973435
  0
ARC
  5
641
330
61C
100
AcDbEntity
  8
Hladina1
100
AcDbCircle
 10
576.4096455347288
 20
499.2452992636582
 30
0.0
 40
2.200584263834125
100
AcDbArc
 50
356.2938605224641
 51
82.22364690638018
  0
ARC
  5
642
330
61C
100
AcDbEntity
  8
Hladina1
100
AcDbCircle
 10
588.8529940283091
 20
498.4086920183568
 30
0.0
 40
2.767531237123765
100
AcDbArc
 50
33.4848876457079
 51
175.8450734820557
  0
LINE
  5
643
330
61C
100
AcDbEntity
  8
Hladina1
100
AcDbLine
 10
578.599516685038
 20
496.7909553503524
 30
0.0
 11
578.6056277115029
 21
499.1030551723039
 31
0.0
  0
LINE
  5
644
330
61C
100
AcDbEntity
  8
Hladina1
100
AcDbLine
 10
578.599516685038
 20
493.3121032082935
 30
0.0
 11
578.6056277115029
 21
496.0252623041291
 31
0.0
  0
LINE
  5
645
330
61C
100
AcDbEntity
  8
Hladina1
100
AcDbLine
 10
585.5019412155107
 20
493.9196257949946
 30
0.0
 11
586.0927364619211
 21
498.6092096376649
 31
0.0
  0
LINE
  5
646
330
61C
100
AcDbEntity
  8
Hladina1
100
AcDbLine
 10
585.5756072094607
 20
490.3243143074696
 30
0.0
 11
585.5756072094609
 21
492.07286391805
 31
0.0
  0
LINE
  5
647
330
61C
100
AcDbEntity
  8
Hladina1
100
AcDbLine
 10
578.6056277115029
 20
490.350807616689
 30
0.0
 11
578.6056277115029
 21
492.5464101620701
 31
0.0
  0
ARC
  5
648
330
61C
100
AcDbEntity
  8
Hladina1
100
AcDbCircle
 10
581.9792589433253
 20
493.5822630050248
 30
0.0
 40
5.19742407030961
100
AcDbArc
 50
237.0944238147139
 51
303.8717317294514
  0
ENDBLK
  5
649
330
61C
100
AcDbEntity
  8
0
100
AcDbBlockEnd
  0
ENDSEC
  0
SECTION
  2
ENTITIES
  0
ARC
  5
3ED
330
1F
100
AcDbEntity
  8
0
100
AcDbCircle
 10
525.7884307384556
 20
403.8165608996885
 30
0.0
 40
1.5
100
AcDbArc
 50
269.9999999999999
 51
0.0
  0
ARC
  5
3EE
330
1F
100
AcDbEntity
  8
0
100
AcDbCircle
 10
501.7884307384556
 20
403.8165608996886
 30
0.0
 40
1.5
100
AcDbArc
 50
180.0
 51
270.0
  0
ARC
  5
3EF
330
1F
100
AcDbEntity
  8
0
100
AcDbCircle
 10
516.7884307384556
 20
492.8165608996883
 30
0.0
 40
1.5
100
AcDbArc
 50
90.0
 51
180.0000000000001
  0
ARC
  5
3F3
330
1F
100
AcDbEntity
  8
0
100
AcDbCircle
 10
525.7884307384556
 20
403.8165608996883
 30
0.0
 40
3.0
100
AcDbArc
 50
270.0
 51
0.0
  0
LINE
  5
3F4
102
{ACAD_REACTORS
330
4F7
102
}
330
1F
100
AcDbEntity
  8
0
100
AcDbLine
 10
501.7884307384556
 20
400.8165608996883
 30
0.0
 11
525.7884307384556
 21
400.8165608996883
 31
0.0
  0
ARC
  5
3F5
330
1F
100
AcDbEntity
  8
0
100
AcDbCircle
 10
501.7884307384556
 20
403.8165608996883
 30
0.0
 40
3.0
100
AcDbArc
 50
180.0
 51
270.0
  0
ARC
  5
3F7
330
1F
100
AcDbEntity
  8
0
100
AcDbCircle
 10
516.7884307384556
 20
492.8165608996883
 30
0.0
 40
3.0
100
AcDbArc
 50
90.0
 51
180.0
  0
ARC
  5
3F8
330
1F
100
AcDbEntity
  8
0
100
AcDbCircle
 10
540.7884307384556
 20
492.8165608996883
 30
0.0
 40
3.0
100
AcDbArc
 50
0.0
 51
90.0
  0
ARC
  5
3F9
330
1F
100
AcDbEntity
  8
0
100
AcDbCircle
 10
540.7884307384556
 20
492.8165608996883
 30
0.0
 40
1.5
100
AcDbArc
 50
0.0
 51
90.0
  0
LINE
  5
3FA
330
1F
100
AcDbEntity
  8
0
100
AcDbLine
 10
527.2884307384556
 20
410.8165608996883
 30
0.0
 11
528.7884307384556
 21
410.8165608996883
 31
0.0
  0
LINE
  5
3FB
330
1F
100
AcDbEntity
  8
0
100
AcDbLine
 10
527.2884307384559
 20
403.8165608996885
 30
0.0
 11
527.2884307384556
 21
410.8165608996883
 31
0.0
  0
LINE
  5
3FC
330
1F
100
AcDbEntity
  8
0
100
AcDbLine
 10
501.7884307384556
 20
402.3165608996885
 30
0.0
 11
525.7884307384556
 21
402.3165608996885
 31
0.0
  0
LINE
  5
3FF
330
1F
100
AcDbEntity
  8
0
100
AcDbLine
 10
515.2884307384556
 20
492.8165608996883
 30
0.0
 11
515.2884307384558
 21
458.2047944361895
 31
0.0
  0
LINE
  5
400
330
1F
100
AcDbEntity
  8
0
100
AcDbLine
 10
540.7884307384556
 20
494.3165608996885
 30
0.0
 11
516.7884307384556
 21
494.3165608996885
 31
0.0
  0
LINE
  5
401
330
1F
100
AcDbEntity
  8
0
100
AcDbLine
 10
542.2884307384556
 20
485.8165608996885
 30
0.0
 11
542.2884307384556
 21
492.8165608996883
 31
0.0
  0
LINE
  5
402
330
1F
100
AcDbEntity
  8
0
100
AcDbLine
 10
543.7884307384556
 20
485.8165608996885
 30
0.0
 11
542.2884307384556
 21
485.8165608996885
 31
0.0
  0
LINE
  5
403
102
{ACAD_REACTORS
330
4F7
330
527
102
}
330
1F
100
AcDbEntity
  8
0
100
AcDbLine
 10
528.7884307384556
 20
403.8165608996883
 30
0.0
 11
528.7884307384556
 21
410.8165608996883
 31
0.0
  0
LINE
  5
404
330
1F
100
AcDbEntity
  8
0
100
AcDbLine
 10
528.7884307384556
 20
400.8165608996883
 30
0.0
 11
528.7884307384556
 21
400.8165608996883
 31
0.0
  0
LINE
  5
408
102
{ACAD_REACTORS
330
4DF
330
53F
102
}
330
1F
100
AcDbEntity
  8
0
100
AcDbLine
 10
540.7884307384556
 20
495.8165608996885
 30
0.0
 11
516.7884307384556
 21
495.8165608996885
 31
0.0
  0
LINE
  5
409
102
{ACAD_REACTORS
330
4C7
330
4DF
102
}
330
1F
100
AcDbEntity
  8
0
100
AcDbLine
 10
543.7884307384556
 20
485.8165608996885
 30
0.0
 11
543.7884307384556
 21
492.8165608996883
 31
0.0
  0
DIMENSION
  5
4B0
102
{ACAD_XDICTIONARY
360
4BD
102
}
102
{ACAD_REACTORS
330
4C7
102
}
330
1F
100
AcDbEntity
  8
0
100
AcDbDimension
280
     0
  2
*D7
 10
513.7884307384559
 20
502.2731313177806
 30
0.0
 11
528.7884307384556
 21
504.1481313177808
 31
0.0
 70
    32
 71
     5
 42
29.99999999999989
 73
     0
 74
     0
 75
     0
  3
ISO-25
100
AcDbAlignedDimension
 13
543.7884307384556
 23
492.8165608996883
 33
0.0
 14
513.7884307384559
 24
492.8165608996883
 34
0.0
100
AcDbRotatedDimension
  0
DIMENSION
  5
4C8
102
{ACAD_XDICTIONARY
360
4D5
102
}
102
{ACAD_REACTORS
330
4DF
102
}
330
1F
100
AcDbEntity
  8
0
100
AcDbDimension
280
     0
  2
*D8
 10
550.5826467527424
 20
495.8165608996887
 30
0.0
 11
548.7076467527424
 21
490.8165608996883
 31
0.0
 70
    32
 71
     5
 42
10.0
 73
     0
 74
     0
 75
     0
  3
ISO-25
100
AcDbAlignedDimension
 13
543.7884307384556
 23
485.8165608996885
 33
0.0
 14
540.7884307384556
 24
495.8165608996885
 34
0.0
 50
90.0
100
AcDbRotatedDimension
  0
DIMENSION
  5
4E0
102
{ACAD_XDICTIONARY
360
4ED
102
}
102
{ACAD_REACTORS
330
4F7
102
}
330
1F
100
AcDbEntity
  8
0
100
AcDbDimension
280
     0
  2
*D9
 10
535.1299714118821
 20
400.8165608996884
 30
0.0
 11
533.2549714118821
 21
405.8165608996882
 31
0.0
 70
    32
 71
     5
 42
10.0
 73
     0
 74
     0
 75
     0
  3
ISO-25
100
AcDbAlignedDimension
 13
528.7884307384556
 23
410.8165608996883
 33
0.0
 14
525.7884307384556
 24
400.8165608996883
 34
0.0
 50
90.0
100
AcDbRotatedDimension
  0
DIMENSION
  5
4F8
330
1F
100
AcDbEntity
  8
0
100
AcDbDimension
280
     0
  2
*D10
 10
513.7884307384559
 20
502.2731313177808
 30
0.0
 11
506.2884307384559
 21
504.1481313177808
 31
0.0
 70
    32
 71
     5
 42
15.00000000000006
 73
     0
 74
     0
 75
     0
  3
ISO-25
100
AcDbAlignedDimension
 13
498.7884307384558
 23
466.8165608996885
 33
0.0
 14
513.7884307384559
 24
493.4415608996885
 34
0.0
100
AcDbRotatedDimension
  0
DIMENSION
  5
510
102
{ACAD_XDICTIONARY
360
51D
102
}
102
{ACAD_REACTORS
330
527
102
}
330
1F
100
AcDbEntity
  8
0
100
AcDbDimension
280
     0
  2
*D11
 10
528.7884307384556
 20
394.0863328441907
 30
0.0
 11
513.7884307384556
 21
395.9613328441907
 31
0.0
 70
    32
 71
     5
 42
30.00000000000006
 73
     0
 74
     0
 75
     0
  3
ISO-25
100
AcDbAlignedDimension
 13
498.7884307384556
 23
403.8165608996883
 33
0.0
 14
528.7884307384556
 24
403.8165608996883
 34
0.0
100
AcDbRotatedDimension
  0
DIMENSION
  5
528
102
{ACAD_XDICTIONARY
360
535
102
}
102
{ACAD_REACTORS
330
53F
102
}
330
1F
100
AcDbEntity
  8
0
100
AcDbDimension
280
     0
  2
*D12
 10
492.2038844887648
 20
470.8909947544491
 30
0.0
 11
490.3288844887647
 21
483.3537778270687
 31
0.0
 70
    32
  1
26
 71
     5
 42
24.92556614523943
 73
     0
 74
     0
 75
     0
  3
ISO-25
100
AcDbAlignedDimension
 13
516.7884307384556
 23
495.8165608996885
 33
0.0
 14
501.0848559039446
 24
470.8909947544491
 34
0.0
 50
90.0
100
AcDbRotatedDimension
  0
DIMENSION
  5
55E
330
1F
100
AcDbEntity
  8
0
100
AcDbDimension
280
     0
  2
*D14
 10
550.5826467527424
 20
410.8165608996887
 30
0.0
 11
550.5826467527424
 21
448.3165608996884
 31
0.0
 70
   160
  1
T+1
 71
     5
 42
75.00000000000023
 73
     0
 74
     0
 75
     0
  3
ISO-25
100
AcDbAlignedDimension
 13
543.7884307384556
 23
485.8165608996887
 33
0.0
 14
528.7884307384556
 24
410.8165608996885
 34
0.0
 50
90.0
100
AcDbRotatedDimension
  0
LINE
  5
5CA
330
1F
100
AcDbEntity
  8
0
100
AcDbLine
 10
498.7835185167186
 20
466.5693905553775
 30
0.0
 11
498.7884307384556
 21
403.8165608996883
 31
0.0
  0
LINE
  5
5CB
330
1F
100
AcDbEntity
  8
0
100
AcDbLine
 10
500.2835185167183
 20
466.5661611227569
 30
0.0
 11
500.2884307384556
 21
403.8165608996886
 31
0.0
  0
LINE
  5
5CC
330
1F
100
AcDbEntity
  8
0
100
AcDbLine
 10
503.9884307384558
 20
454.6693905553775
 30
0.0
 11
512.2884307384556
 21
454.6693905553773
 31
0.0
  0
LINE
  5
5CD
330
1F
100
AcDbEntity
  8
0
100
AcDbLine
 10
515.2884307384558
 20
457.6693905553773
 30
0.0
 11
515.2884307384558
 21
469.0665608996886
 31
0.0
  0
LINE
  5
5CE
330
1F
100
AcDbEntity
  8
0
100
AcDbLine
 10
513.7884307384559
 20
492.8165608996883
 30
0.0
 11
513.788430738456
 21
457.6693905553773
 31
0.0
  0
ARC
  5
5CF
330
1F
100
AcDbEntity
  8
0
100
AcDbCircle
 10
512.2884307384556
 20
457.6693905553773
 30
0.0
 40
3.0
100
AcDbArc
 50
270.0
 51
0.0
  0
ARC
  5
5D0
330
1F
100
AcDbEntity
  8
0
100
AcDbCircle
 10
512.2884307384556
 20
457.6693905553773
 30
0.0
 40
1.5
100
AcDbArc
 50
270.0
 51
0.0
  0
ARC
  5
5D1
330
1F
100
AcDbEntity
  8
0
100
AcDbCircle
 10
503.9884307384558
 20
457.6693905553773
 30
0.0
 40
3.0
100
AcDbArc
 50
180.0
 51
270.0
  0
ARC
  5
5D2
330
1F
100
AcDbEntity
  8
0
100
AcDbCircle
 10
503.9884307384558
 20
457.6693905553773
 30
0.0
 40
1.5
100
AcDbArc
 50
180.0
 51
270.0
  0
ARC
  5
5D3
330
1F
100
AcDbEntity
  8
0
100
AcDbCircle
 10
501.2835185167185
 20
466.5693905553775
 30
0.0
 40
2.500000000000028
100
AcDbArc
 50
354.5473780121888
 51
180.0
  0
ARC
  5
5D4
330
1F
100
AcDbEntity
  8
0
100
AcDbCircle
 10
501.2835185167185
 20
466.5693905553775
 30
0.0
 40
1.000005214603969
100
AcDbArc
 50
354.5411109718323
 51
180.1850322161362
  0
LINE
  5
5D5
330
1F
100
AcDbEntity
  8
0
100
AcDbLine
 10
502.278988421219
 20
466.4742585498843
 30
0.0
 11
500.9884307384558
 21
457.6693905553773
 31
0.0
  0
LINE
  5
5D6
330
1F
100
AcDbEntity
  8
0
100
AcDbLine
 10
502.4884307384556
 20
457.6693905553773
 30
0.0
 11
503.7722062995238
 21
466.3318339942916
 31
0.0
  0
LINE
  5
5D7
330
1F
100
AcDbEntity
  8
0
100
AcDbLine
 10
512.2884307384556
 20
456.1693905553773
 30
0.0
 11
503.9884307384558
 21
456.1693905553775
 31
0.0
  0
LINE
  5
5E2
330
1F
100
AcDbEntity
  8
0
100
AcDbLine
 10
513.7884307384559
 20
491.3377904357828
 30
0.0
 11
515.2885831419784
 21
492.8379428393053
 31
0.0
  0
LINE
  5
5E3
330
1F
100
AcDbEntity
  8
0
100
AcDbLine
 10
516.7670487988385
 20
494.3164084961654
 30
0.0
 11
518.2672012023613
 21
495.8165608996885
 31
0.0
  0
LINE
  5
5E4
330
1F
100
AcDbEntity
  8
0
100
AcDbLine
 10
513.7884307384559
 20
486.8476623752483
 30
0.0
 11
515.2884307384556
 21
488.347662375248
 31
0.0
  0
LINE
  5
5E5
330
1F
100
AcDbEntity
  8
0
100
AcDbLine
 10
521.2573292628958
 20
494.3165608996885
 30
0.0
 11
522.7573292628958
 21
495.8165608996885
 31
0.0
  0
LINE
  5
5E6
330
1F
100
AcDbEntity
  8
0
100
AcDbLine
 10
498.9860844288481
 20
467.5551880051059
 30
0.0
 11
500.2977210669897
 21
468.8668246432476
 31
0.0
  0
LINE
  5
5E7
330
1F
100
AcDbEntity
  8
0
100
AcDbLine
 10
525.7474573234307
 20
494.3165608996885
 30
0.0
 11
527.2474573234306
 21
495.8165608996885
 31
0.0
  0
LINE
  5
5E8
330
1F
100
AcDbEntity
  8
0
100
AcDbLine
 10
513.7884307384559
 20
482.3575343147137
 30
0.0
 11
515.2884307384558
 21
483.8575343147136
 31
0.0
  0
LINE
  5
5E9
330
1F
100
AcDbEntity
  8
0
100
AcDbLine
 10
498.7838086657443
 20
462.8627841814678
 30
0.0
 11
500.2836910127027
 21
464.3626665284259
 31
0.0
  0
LINE
  5
5EA
330
1F
100
AcDbEntity
  8
0
100
AcDbLine
 10
530.2375853839651
 20
494.3165608996885
 30
0.0
 11
531.7375853839648
 21
495.8165608996885
 31
0.0
  0
LINE
  5
5EB
330
1F
100
AcDbEntity
  8
0
100
AcDbLine
 10
502.2625214696819
 20
466.3414969854053
 30
0.0
 11
503.5485474099138
 21
467.6275229256368
 31
0.0
  0
LINE
  5
5EC
330
1F
100
AcDbEntity
  8
0
100
AcDbLine
 10
513.7884307384559
 20
477.8674062541791
 30
0.0
 11
515.2884307384558
 21
479.3674062541788
 31
0.0
  0
LINE
  5
5ED
330
1F
100
AcDbEntity
  8
0
100
AcDbLine
 10
498.7841601204654
 20
458.3730075756542
 30
0.0
 11
500.2840424855098
 21
459.8728899406987
 31
0.0
  0
LINE
  5
5EE
330
1F
100
AcDbEntity
  8
0
100
AcDbLine
 10
534.7277134444996
 20
494.3165608996883
 30
0.0
 11
536.2277134444996
 21
495.8165608996885
 31
0.0
  0
LINE
  5
5EF
330
1F
100
AcDbEntity
  8
0
100
AcDbLine
 10
501.5107000360763
 20
461.2325882989191
 30
0.0
 11
503.2706721978462
 21
462.9476670727353
 31
0.0
  0
LINE
  5
5F0
330
1F
100
AcDbEntity
  8
0
100
AcDbLine
 10
513.7884307384559
 20
473.3772781936446
 30
0.0
 11
515.2884307384558
 21
474.8772781936445
 31
0.0
  0
LINE
  5
5F1
330
1F
100
AcDbEntity
  8
0
100
AcDbLine
 10
498.7845115751865
 20
453.8832309698407
 30
0.0
 11
500.2843939583173
 21
455.3831133529715
 31
0.0
  0
LINE
  5
5F2
330
1F
100
AcDbEntity
  8
0
100
AcDbLine
 10
539.2178415050343
 20
494.3165608996883
 30
0.0
 11
540.7178415050343
 21
495.8165608996885
 31
0.0
  0
LINE
  5
5F3
330
1F
100
AcDbEntity
  8
0
100
AcDbLine
 10
501.2801786868688
 20
456.378898081523
 30
0.0
 11
502.4905709467143
 21
457.5892903413683
 31
0.0
  0
LINE
  5
5F4
330
1F
100
AcDbEntity
  8
0
100
AcDbLine
 10
513.788430738456
 20
468.8871501331101
 30
0.0
 11
515.2884307384558
 21
470.3871501331099
 31
0.0
  0
LINE
  5
5F5
330
1F
100
AcDbEntity
  8
0
100
AcDbLine
 10
498.7848630299075
 20
449.393454364027
 30
0.0
 11
500.2847454311247
 21
450.8933367652442
 31
0.0
  0
LINE
  5
5F6
330
1F
100
AcDbEntity
  8
0
100
AcDbLine
 10
542.28637994088
 20
492.8949712749996
 30
0.0
 11
543.497256774417
 21
494.1058481085365
 31
0.0
  0
LINE
  5
5F7
330
1F
100
AcDbEntity
  8
0
100
AcDbLine
 10
502.7351344540129
 20
454.9437257881325
 30
0.0
 11
503.9610491590446
 21
456.1696404931642
 31
0.0
  0
LINE
  5
5F8
330
1F
100
AcDbEntity
  8
0
100
AcDbLine
 10
498.7852144846284
 20
444.9036777582135
 30
0.0
 11
500.2850969039319
 21
446.403560177517
 31
0.0
  0
LINE
  5
5F9
330
1F
100
AcDbEntity
  8
0
100
AcDbLine
 10
542.2884307384556
 20
488.4068940120407
 30
0.0
 11
543.7884307384556
 21
489.9068940120407
 31
0.0
  0
LINE
  5
5FA
330
1F
100
AcDbEntity
  8
0
100
AcDbLine
 10
506.9509272817922
 20
454.6693905553775
 30
0.0
 11
508.4509272817923
 21
456.1693905553773
 31
0.0
  0
LINE
  5
5FB
330
1F
100
AcDbEntity
  8
0
100
AcDbLine
 10
498.7855659393495
 20
440.4139011523999
 30
0.0
 11
500.2854483767393
 21
441.9137835897898
 31
0.0
  0
LINE
  5
5FC
330
1F
100
AcDbEntity
  8
0
100
AcDbLine
 10
511.441055342327
 20
454.6693905553773
 30
0.0
 11
515.2884307384558
 21
458.5167659515063
 31
0.0
  0
LINE
  5
5FD
330
1F
100
AcDbEntity
  8
0
100
AcDbLine
 10
498.7859173940702
 20
435.9241245465863
 30
0.0
 11
500.2857998495466
 21
437.4240070020626
 31
0.0
  0
LINE
  5
5FE
330
1F
100
AcDbEntity
  8
0
100
AcDbLine
 10
498.7862688487912
 20
431.4343479407726
 30
0.0
 11
500.286151322354
 21
432.9342304143353
 31
0.0
  0
LINE
  5
5FF
330
1F
100
AcDbEntity
  8
0
100
AcDbLine
 10
498.7866203035125
 20
426.9445713349591
 30
0.0
 11
500.2865027951613
 21
428.4444538266081
 31
0.0
  0
LINE
  5
600
330
1F
100
AcDbEntity
  8
0
100
AcDbLine
 10
498.7869717582333
 20
422.4547947291455
 30
0.0
 11
500.2868542679685
 21
423.9546772388806
 31
0.0
  0
LINE
  5
601
330
1F
100
AcDbEntity
  8
0
100
AcDbLine
 10
498.7873232129543
 20
417.9650181233318
 30
0.0
 11
500.2872057407759
 21
419.4649006511536
 31
0.0
  0
LINE
  5
602
330
1F
100
AcDbEntity
  8
0
100
AcDbLine
 10
498.7876746676754
 20
413.4752415175183
 30
0.0
 11
500.2875572135833
 21
414.9751240634262
 31
0.0
  0
LINE
  5
603
330
1F
100
AcDbEntity
  8
0
100
AcDbLine
 10
498.7880261223962
 20
408.9854649117047
 30
0.0
 11
500.2879086863906
 21
410.4853474756987
 31
0.0
  0
LINE
  5
604
330
1F
100
AcDbEntity
  8
0
100
AcDbLine
 10
498.7883775771173
 20
404.4956883058912
 30
0.0
 11
500.288260159198
 21
405.9955708879718
 31
0.0
  0
LINE
  5
605
330
1F
100
AcDbEntity
  8
0
100
AcDbLine
 10
500.1116962722845
 20
401.3288789405236
 30
0.0
 11
501.2138070199511
 21
402.4309896881905
 31
0.0
  0
LINE
  5
606
330
1F
100
AcDbEntity
  8
0
100
AcDbLine
 10
504.0895062919837
 20
400.8165608996883
 30
0.0
 11
505.5895062919837
 21
402.3165608996886
 31
0.0
  0
LINE
  5
607
330
1F
100
AcDbEntity
  8
0
100
AcDbLine
 10
508.5796343525183
 20
400.8165608996883
 30
0.0
 11
510.0796343525184
 21
402.3165608996885
 31
0.0
  0
LINE
  5
608
330
1F
100
AcDbEntity
  8
0
100
AcDbLine
 10
513.0697624130529
 20
400.8165608996883
 30
0.0
 11
514.569762413053
 21
402.3165608996885
 31
0.0
  0
LINE
  5
609
330
1F
100
AcDbEntity
  8
0
100
AcDbLine
 10
517.5598904735871
 20
400.8165608996883
 30
0.0
 11
519.0598904735875
 21
402.3165608996885
 31
0.0
  0
LINE
  5
60A
330
1F
100
AcDbEntity
  8
0
100
AcDbLine
 10
522.0500185341221
 20
400.8165608996883
 30
0.0
 11
523.5500185341221
 21
402.3165608996883
 31
0.0
  0
LINE
  5
60B
330
1F
100
AcDbEntity
  8
0
100
AcDbLine
 10
527.2884307384559
 20
406.0549731040222
 30
0.0
 11
528.7884307384556
 21
407.5549731040221
 31
0.0
  0
LINE
  5
60C
330
1F
100
AcDbEntity
  8
0
100
AcDbLine
 10
526.673754955074
 20
400.9501692601058
 30
0.0
 11
528.6548223780384
 21
402.93123668307
 31
0.0
  0
LINE
  5
60E
330
1F
100
AcDbEntity
  8
0
100
AcDbLine
 10
513.788430738456
 20
461.1949224967242
 30
0.0
 11
515.2884307384558
 21
462.694922496724
 31
0.0
  0
LINE
  5
60F
330
1F
100
AcDbEntity
  8
0
100
AcDbLine
 10
513.788430738456
 20
465.6850505572585
 30
0.0
 11
515.2884307384558
 21
467.1850505572585
 31
0.0
  0
INSERT
  5
650
330
1F
100
AcDbEntity
  8
0
100
AcDbBlockReference
  2
2
 10
1090.145105379806
 20
-31.8414593474177
 30
0.0
 41
-1.0
  0
VIEWPORT
  5
1F5
330
50
100
AcDbEntity
 67
     1
  8
0
348
710
100
AcDbViewport
 10
133.3499908447265
 20
101.5999970436096
 30
0.0
 40
420.9874148428274
 41
228.4221935424805
 68
     1
 69
     1
 12
133.3499908447265
 22
101.5999970436096
 13
0.0
 23
0.0
 14
10.0
 24
10.0
 15
10.0
 25
10.0
 16
0.0
 26
0.0
 36
1.0
 17
0.0
 27
0.0
 37
0.0
 42
50.0
 43
0.0
 44
0.0
 45
228.4221935424805
 50
0.0
 51
0.0
 72
  1000
 90
    32800
  1

281
     0
 71
     1
 74
     0
110
0.0
120
0.0
130
0.0
111
1.0
121
0.0
131
0.0
112
0.0
122
1.0
132
0.0
 79
     0
146
0.0
170
     0
 61
     5
292
     1
282
     1
141
0.0
142
0.0
 63
   250
421
  3355443
  0
VIEWPORT
  5
1F7
330
50
100
AcDbEntity
 67
     1
  8
0
348
710
100
AcDbViewport
 10
133.3499939441681
 20
101.5999939441681
 30
0.0
 40
213.3599903106689
 41
162.5599903106689
 68
     2
 69
     2
 12
353.0072856557504
 22
444.0135311745666
 13
0.0
 23
0.0
 14
10.0
 24
10.0
 15
10.0
 25
10.0
 16
0.0
 26
0.0
 36
1.0
 17
0.0
 27
0.0
 37
0.0
 42
50.0
 43
0.0
 44
0.0
 45
7.368528610354223
 50
0.0
 51
0.0
 72
  1000
 90
    32864
  1

281
     0
 71
     1
 74
     0
110
0.0
120
0.0
130
0.0
111
1.0
121
0.0
131
0.0
112
0.0
122
1.0
132
0.0
 79
     1
146
0.0
170
     0
 61
     5
292
     1
282
     1
141
0.0
142
0.0
 63
   250
421
  3355443
  0
ENDSEC
  0
SECTION
  2
OBJECTS
  0
DICTIONARY
  5
C
330
0
100
AcDbDictionary
281
     1
  3
ACAD_CIP_PREVIOUS_PRODUCT_INFO
350
73D
  3
ACAD_COLOR
350
6B
  3
ACAD_DETAILVIEWSTYLE
350
739
  3
ACAD_GROUP
350
D
  3
ACAD_LAYOUT
350
1A
  3
ACAD_MATERIAL
350
6A
  3
ACAD_MLEADERSTYLE
350
735
  3
ACAD_MLINESTYLE
350
17
  3
ACAD_PLOTSETTINGS
350
19
  3
ACAD_PLOTSTYLENAME
350
E
  3
ACAD_SCALELIST
350
723
  3
ACAD_SECTIONVIEWSTYLE
350
737
  3
ACAD_TABLESTYLE
350
614
  3
ACAD_VISUALSTYLE
350
70A
  3
ACDB_RECOMPOSE_DATA
350
7BF
  3
AcDbVariableDictionary
350
5E
  0
DICTIONARY
  5
77A
330
10
100
AcDbDictionary
280
     1
281
     1
  3
ADSK_XREC_LAYER_RECONCILED
360
77B
  0
DICTIONARY
  5
77C
330
64A
100
AcDbDictionary
280
     1
281
     1
  3
ADSK_XREC_LAYER_RECONCILED
360
77D
  0
DICTIONARY
  5
665
330
1F
100
AcDbDictionary
280
     1
281
     1
  3
ACAD_SORTENTS
360
666
  0
DICTIONARY
  5
4BD
330
4B0
100
AcDbDictionary
280
     1
281
     1
  3
ACAD_DIMASSOC
360
4C7
  0
DICTIONARY
  5
4D5
330
4C8
100
AcDbDictionary
280
     1
281
     1
  3
ACAD_DIMASSOC
360
4DF
  0
DICTIONARY
  5
4ED
330
4E0
100
AcDbDictionary
280
     1
281
     1
  3
ACAD_DIMASSOC
360
4F7
  0
DICTIONARY
  5
51D
330
510
100
AcDbDictionary
280
     1
281
     1
  3
ACAD_DIMASSOC
360
527
  0
DICTIONARY
  5
535
330
528
100
AcDbDictionary
280
     1
281
     1
  3
ACAD_DIMASSOC
360
53F
  0
XRECORD
  5
73D
102
{ACAD_REACTORS
330
C
102
}
330
C
100
AcDbXrecord
280
     1
300
ACDLT
300
2020
300
ACDLT_F_S
  0
DICTIONARY
  5
6B
102
{ACAD_REACTORS
330
C
102
}
330
C
100
AcDbDictionary
281
     1
  0
DICTIONARY
  5
739
102
{ACAD_REACTORS
330
C
102
}
330
C
100
AcDbDictionary
281
     1
  3
Metric50
350
73A
  0
DICTIONARY
  5
D
102
{ACAD_REACTORS
330
C
102
}
330
C
100
AcDbDictionary
281
     1
  0
DICTIONARY
  5
1A
102
{ACAD_REACTORS
330
C
102
}
330
C
100
AcDbDictionary
281
     1
  3
Model
350
22
  3
Rozvržení1
350
51
  3
Rozvržení2
350
56
  0
DICTIONARY
  5
6A
102
{ACAD_REACTORS
330
C
102
}
330
C
100
AcDbDictionary
281
     1
  3
ByBlock
350
6FA
  3
ByLayer
350
6F2
  3
Global
350
702
  0
DICTIONARY
  5
735
102
{ACAD_REACTORS
330
C
102
}
330
C
100
AcDbDictionary
281
     1
  3
Standard
350
736
  0
DICTIONARY
  5
17
102
{ACAD_REACTORS
330
C
102
}
330
C
100
AcDbDictionary
281
     1
  3
Standard
350
18
  0
DICTIONARY
  5
19
102
{ACAD_REACTORS
330
C
102
}
330
C
100
AcDbDictionary
281
     1
  0
ACDBDICTIONARYWDFLT
  5
E
102
{ACAD_REACTORS
330
C
102
}
330
C
100
AcDbDictionary
281
     1
  3
Normal
350
F
100
AcDbDictionaryWithDefault
340
F
  0
DICTIONARY
  5
723
102
{ACAD_REACTORS
330
C
102
}
330
C
100
AcDbDictionary
281
     1
  3
A0
350
724
  3
A1
350
725
  3
A2
350
726
  3
A3
350
727
  3
A4
350
728
  3
A5
350
729
  3
A6
350
72A
  3
A7
350
72B
  3
A8
350
72C
  3
A9
350
72D
  3
B0
350
72E
  3
B1
350
72F
  3
B2
350
730
  3
B3
350
731
  3
B4
350
732
  3
B5
350
733
  3
B6
350
734
  0
DICTIONARY
  5
737
102
{ACAD_REACTORS
330
C
102
}
330
C
100
AcDbDictionary
281
     1
  3
Metric50
350
738
  0
DICTIONARY
  5
614
102
{ACAD_REACTORS
330
C
102
}
330
C
100
AcDbDictionary
281
     1
  3
Standard
350
615
  0
DICTIONARY
  5
70A
102
{ACAD_REACTORS
330
C
102
}
330
C
100
AcDbDictionary
281
     1
  3
2dWireframe
350
710
  3
Basic
350
70F
  3
Brighten
350
716
  3
ColorChange
350
71A
  3
Conceptual
350
713
  3
Dim
350
715
  3
EdgeColorOff
350
722
  3
Facepattern
350
719
  3
Flat
350
70B
  3
FlatWithEdges
350
70C
  3
Gouraud
350
70D
  3
GouraudWithEdges
350
70E
  3
Hidden
350
712
  3
JitterOff
350
720
  3
Linepattern
350
718
  3
OverhangOff
350
721
  3
Realistic
350
714
  3
Shaded
350
71F
  3
Shaded with edges
350
71E
  3
Shades of Gray
350
71B
  3
Sketchy
350
71C
  3
Thicken
350
717
  3
Wireframe
350
711
  3
X-Ray
350
71D
  0
XRECORD
  5
7BF
102
{ACAD_REACTORS
330
C
102
}
330
C
100
AcDbXrecord
280
     1
 90
        1
330
615
  0
DICTIONARY
  5
5E
102
{ACAD_REACTORS
330
C
102
}
330
C
100
AcDbDictionary
281
     1
  3
CANNOSCALE
350
782
  3
CMLEADERSTYLE
350
77E
  3
CTABLESTYLE
350
663
  3
CVIEWDETAILSTYLE
350
77F
  3
CVIEWSECTIONSTYLE
350
780
  3
DIMASSOC
350
5F
  3
HIDETEXT
350
63
  3
LAYEREVAL
350
784
  3
LAYERNOTIFY
350
785
  3
LIGHTINGUNITS
350
783
  3
MSLTSCALE
350
781
  0
XRECORD
  5
77B
102
{ACAD_REACTORS
330
77A
102
}
330
77A
100
AcDbXrecord
280
     1
290
     1
  0
XRECORD
  5
77D
102
{ACAD_REACTORS
330
77C
102
}
330
77C
100
AcDbXrecord
280
     1
290
     1
  0
SORTENTSTABLE
  5
666
102
{ACAD_REACTORS
330
665
102
}
330
665
100
AcDbSortentsTable
330
1F
331
5CF
  5
5D0
331
5D0
  5
5D1
331
5D1
  5
5D2
331
5D2
  5
5D3
331
5D3
  5
5D4
331
5D4
  5
5D5
331
5D5
  5
5D6
331
5D6
  5
5D7
331
5D7
  5
5E2
331
5E2
  5
5E3
331
5E3
  5
5E4
331
5E4
  5
5E5
331
5E5
  5
5E6
331
5E6
  5
5E7
331
5E7
  5
5E8
331
5E8
  5
5E9
331
5E9
  5
5EA
331
5EA
  5
5EB
331
5EB
  5
5EC
331
5EC
  5
5ED
331
5ED
  5
5EE
331
5EE
  5
5EF
331
5EF
  5
5F0
331
5F0
  5
5F1
331
5F1
  5
5F2
331
5F2
  5
5F3
331
5F3
  5
5F4
331
5F4
  5
5F5
331
5F5
  5
5F6
331
5F6
  5
5F7
331
5F7
  5
5F8
331
5F8
  5
5F9
331
5F9
  5
5FA
331
5FA
  5
5FB
331
5FB
  5
5FC
331
5FC
  5
5FD
331
5FD
  5
5FE
331
5FE
  5
5FF
331
5FF
  5
600
331
600
  5
601
331
601
  5
602
331
602
  5
603
331
603
  5
604
331
604
  5
605
331
605
  5
606
331
606
  5
607
331
607
  5
608
331
608
  5
609
331
609
  5
60A
331
60A
  5
60B
331
60B
  5
60C
331
60C
  5
60E
331
60E
  5
60F
331
60F
  5
650
331
650
  5
664
  0
DIMASSOC
  5
4C7
102
{ACAD_REACTORS
330
4BD
102
}
330
4BD
100
AcDbDimAssoc
330
4B0
 90
        1
 70
     0
 71
     0
  1
AcDbOsnapPointRef
 72
     1
331
409
 73
     2
 91
        0
 40
1.0
 10
0.0
 20
0.0
 30
2.000000000000000E+50
 75
     0
  0
DIMASSOC
  5
4DF
102
{ACAD_REACTORS
330
4D5
102
}
330
4D5
100
AcDbDimAssoc
330
4C8
 90
        3
 70
     0
 71
     0
  1
AcDbOsnapPointRef
 72
    13
331
409
 73
     2
 91
        0
 40
0.0
 10
0.0
 20
0.0
 30
2.000000000000000E+50
 75
     0
  1
AcDbOsnapPointRef
 72
    13
331
408
 73
     2
 91
        0
 40
0.0
 10
0.0
 20
0.0
 30
2.000000000000000E+50
 75
     0
  0
DIMASSOC
  5
4F7
102
{ACAD_REACTORS
330
4ED
102
}
330
4ED
100
AcDbDimAssoc
330
4E0
 90
        3
 70
     0
 71
     0
  1
AcDbOsnapPointRef
 72
     1
331
403
 73
     2
 91
        0
 40
1.0
 10
0.0
 20
0.0
 30
2.000000000000000E+50
 75
     0
  1
AcDbOsnapPointRef
 72
     1
331
3F4
 73
     2
 91
        0
 40
1.0
 10
0.0
 20
0.0
 30
2.000000000000000E+50
 75
     0
  0
DIMASSOC
  5
527
102
{ACAD_REACTORS
330
51D
102
}
330
51D
100
AcDbDimAssoc
330
510
 90
        2
 70
     0
 71
     0
  1
AcDbOsnapPointRef
 72
    13
331
403
 73
     2
 91
        0
 40
0.0
 10
0.0
 20
0.0
 30
2.000000000000000E+50
 75
     0
  0
DIMASSOC
  5
53F
102
{ACAD_REACTORS
330
535
102
}
330
535
100
AcDbDimAssoc
330
528
 90
        1
 70
     0
 71
     0
  1
AcDbOsnapPointRef
 72
     1
331
408
 73
     2
 91
        0
 40
1.0
 10
0.0
 20
0.0
 30
2.000000000000000E+50
 75
     0
  0
ACDBDETAILVIEWSTYLE
  5
73A
102
{ACAD_REACTORS
330
739
102
}
330
739
100
AcDbModelDocViewStyle
 70
     0
  3
Metric50
290
     0
300
Metric50
 90
        0
100
AcDbDetailViewStyle
 70
     0
 71
     0
 90
        3
 71
     1
340
11
 62
   256
 40
5.0
340
0
 62
   256
 40
5.0
300

 40
0.0
280
     1
 71
     2
340
16
 90
       25
 62
   256
 71
     3
340
11
 62
   256
 40
5.0
 90
        0
 40
15.0
 90
        1
300
%<\AcVar ViewDetailId>% (%<\AcVar ViewScale \f "%sn">%)
 71
     4
340
16
 90
       25
 62
   256
340
16
 90
       25
 62
   256
280
     0
  0
LAYOUT
  5
22
102
{ACAD_REACTORS
330
1A
102
}
330
1A
100
AcDbPlotSettings
  1

  2
none_device
  4
ANSI_A_(8.50_x_11.00_Inches)
  6

 40
6.349999904632567
 41
19.04999923706055
 42
6.350006103515625
 43
19.04998779296875
 44
215.8999938964844
 45
279.3999938964844
 46
0.0
 47
0.0
 48
0.0
 49
0.0
140
0.0
141
0.0
142
1.0
143
78.436453180766
 70
 11952
 72
     0
 73
     1
 74
     0
  7

 75
     0
147
0.0127491741332998
 76
     0
 77
     2
 78
   300
148
0.0
149
0.0
100
AcDbLayout
  1
Model
 70
     1
 71
     0
 10
0.0
 20
0.0
 11
12.0
 21
9.0
 12
0.0
 22
0.0
 32
0.0
 14
0.0
 24
0.0
 34
0.0
 15
0.0
 25
0.0
 35
0.0
146
0.0
 13
0.0
 23
0.0
 33
0.0
 16
1.0
 26
0.0
 36
0.0
 17
0.0
 27
1.0
 37
0.0
 76
     0
330
1F
331
6EC
  0
LAYOUT
  5
51
102
{ACAD_REACTORS
330
1A
102
}
330
1A
100
AcDbPlotSettings
  1

  2
none_device
  4
Letter_(8.50_x_11.00_Inches)
  6

 40
6.349999904632567
 41
6.349999904632567
 42
6.350006103515625
 43
6.350006103515625
 44
215.8999938964844
 45
279.3999938964844
 46
0.0
 47
0.0
 48
0.0
 49
0.0
140
0.0
141
0.0
142
1.0
143
1.0
 70
   688
 72
     1
 73
     1
 74
     5
  7

 75
    16
147
1.0
 76
     0
 77
     2
 78
   300
148
0.0
149
0.0
100
AcDbLayout
  1
Rozvržení1
 70
     1
 71
     1
 10
-6.350006103515625
 20
-6.349999904632567
 11
273.0499877929688
 21
209.5499939918518
 12
0.0
 22
0.0
 32
0.0
 14
26.66999878883363
 24
20.31999878883363
 34
0.0
 15
240.0299890995026
 25
182.8799890995025
 35
0.0
146
0.0
 13
0.0
 23
0.0
 33
0.0
 16
1.0
 26
0.0
 36
0.0
 17
0.0
 27
1.0
 37
0.0
 76
     0
330
50
331
1F5
  0
LAYOUT
  5
56
102
{ACAD_REACTORS
330
1A
102
}
330
1A
100
AcDbPlotSettings
  1

  2
None
  4

  6

 40
0.0
 41
0.0
 42
0.0
 43
0.0
 44
0.0
 45
0.0
 46
0.0
 47
0.0
 48
0.0
 49
0.0
140
0.0
141
0.0
142
1.0
143
1.0
 70
   688
 72
     0
 73
     0
 74
     5
  7

 75
    16
147
1.0
 76
     0
 77
     2
 78
   300
148
0.0
149
0.0
100
AcDbLayout
  1
Rozvržení2
 70
     1
 71
     2
 10
0.0
 20
0.0
 11
12.0
 21
9.0
 12
0.0
 22
0.0
 32
0.0
 14
0.0
 24
0.0
 34
0.0
 15
0.0
 25
0.0
 35
0.0
146
0.0
 13
0.0
 23
0.0
 33
0.0
 16
1.0
 26
0.0
 36
0.0
 17
0.0
 27
1.0
 37
0.0
 76
     0
330
55
  0
MATERIAL
  5
6FA
102
{ACAD_XDICTIONARY
360
6FB
102
}
102
{ACAD_REACTORS
330
6A
102
}
330
6A
100
AcDbMaterial
  1
ByBlock
 72
     0
 43
0.0008202099737533
 43
0.0
 43
0.0
 43
0.0
 43
0.0
 43
0.0008202099737533
 43
0.0
 43
0.0
 43
0.0
 43
0.0
 43
1.0
 43
0.0
 43
0.0
 43
0.0
 43
0.0
 43
1.0
 77
     0
 47
0.0008202099737533
 47
0.0
 47
0.0
 47
0.0
 47
0.0
 47
0.0008202099737533
 47
0.0
 47
0.0
 47
0.0
 47
0.0
 47
1.0
 47
0.0
 47
0.0
 47
0.0
 47
0.0
 47
1.0
171
     0
 49
0.0008202099737533
 49
0.0
 49
0.0
 49
0.0
 49
0.0
 49
0.0008202099737533
 49
0.0
 49
0.0
 49
0.0
 49
0.0
 49
1.0
 49
0.0
 49
0.0
 49
0.0
 49
0.0
 49
1.0
175
     0
142
0.0008202099737533
142
0.0
142
0.0
142
0.0
142
0.0
142
0.0008202099737533
142
0.0
142
0.0
142
0.0
142
0.0
142
1.0
142
0.0
142
0.0
142
0.0
142
0.0
142
1.0
179
     0
144
0.0008202099737533
144
0.0
144
0.0
144
0.0
144
0.0
144
0.0008202099737533
144
0.0
144
0.0
144
0.0
144
0.0
144
1.0
144
0.0
144
0.0
144
0.0
144
0.0
144
1.0
147
0.0008202099737533
147
0.0
147
0.0
147
0.0
147
0.0
147
0.0008202099737533
147
0.0
147
0.0
147
0.0
147
0.0
147
1.0
147
0.0
147
0.0
147
0.0
147
0.0
147
1.0
  0
MATERIAL
  5
6F2
102
{ACAD_XDICTIONARY
360
6F3
102
}
102
{ACAD_REACTORS
330
6A
102
}
330
6A
100
AcDbMaterial
  1
ByLayer
 72
     0
 43
0.0008202099737533
 43
0.0
 43
0.0
 43
0.0
 43
0.0
 43
0.0008202099737533
 43
0.0
 43
0.0
 43
0.0
 43
0.0
 43
1.0
 43
0.0
 43
0.0
 43
0.0
 43
0.0
 43
1.0
 77
     0
 47
0.0008202099737533
 47
0.0
 47
0.0
 47
0.0
 47
0.0
 47
0.0008202099737533
 47
0.0
 47
0.0
 47
0.0
 47
0.0
 47
1.0
 47
0.0
 47
0.0
 47
0.0
 47
0.0
 47
1.0
171
     0
 49
0.0008202099737533
 49
0.0
 49
0.0
 49
0.0
 49
0.0
 49
0.0008202099737533
 49
0.0
 49
0.0
 49
0.0
 49
0.0
 49
1.0
 49
0.0
 49
0.0
 49
0.0
 49
0.0
 49
1.0
175
     0
142
0.0008202099737533
142
0.0
142
0.0
142
0.0
142
0.0
142
0.0008202099737533
142
0.0
142
0.0
142
0.0
142
0.0
142
1.0
142
0.0
142
0.0
142
0.0
142
0.0
142
1.0
179
     0
144
0.0008202099737533
144
0.0
144
0.0
144
0.0
144
0.0
144
0.0008202099737533
144
0.0
144
0.0
144
0.0
144
0.0
144
1.0
144
0.0
144
0.0
144
0.0
144
0.0
144
1.0
147
0.0008202099737533
147
0.0
147
0.0
147
0.0
147
0.0
147
0.0008202099737533
147
0.0
147
0.0
147
0.0
147
0.0
147
1.0
147
0.0
147
0.0
147
0.0
147
0.0
147
1.0
  0
MATERIAL
  5
702
102
{ACAD_XDICTIONARY
360
703
102
}
102
{ACAD_REACTORS
330
6A
102
}
330
6A
100
AcDbMaterial
  1
Global
 72
     0
 43
0.0008202099737533
 43
0.0
 43
0.0
 43
0.0
 43
0.0
 43
0.0008202099737533
 43
0.0
 43
0.0
 43
0.0
 43
0.0
 43
1.0
 43
0.0
 43
0.0
 43
0.0
 43
0.0
 43
1.0
 77
     0
 47
0.0008202099737533
 47
0.0
 47
0.0
 47
0.0
 47
0.0
 47
0.0008202099737533
 47
0.0
 47
0.0
 47
0.0
 47
0.0
 47
1.0
 47
0.0
 47
0.0
 47
0.0
 47
0.0
 47
1.0
171
     0
 49
0.0008202099737533
 49
0.0
 49
0.0
 49
0.0
 49
0.0
 49
0.0008202099737533
 49
0.0
 49
0.0
 49
0.0
 49
0.0
 49
1.0
 49
0.0
 49
0.0
 49
0.0
 49
0.0
 49
1.0
175
     0
142
0.0008202099737533
142
0.0
142
0.0
142
0.0
142
0.0
142
0.0008202099737533
142
0.0
142
0.0
142
0.0
142
0.0
142
1.0
142
0.0
142
0.0
142
0.0
142
0.0
142
1.0
179
     0
144
0.0008202099737533
144
0.0
144
0.0
144
0.0
144
0.0
144
0.0008202099737533
144
0.0
144
0.0
144
0.0
144
0.0
144
1.0
144
0.0
144
0.0
144
0.0
144
0.0
144
1.0
147
0.0008202099737533
147
0.0
147
0.0
147
0.0
147
0.0
147
0.0008202099737533
147
0.0
147
0.0
147
0.0
147
0.0
147
1.0
147
0.0
147
0.0
147
0.0
147
0.0
147
1.0
  0
MLEADERSTYLE
  5
736
102
{ACAD_REACTORS
330
735
102
}
330
735
100
AcDbMLeaderStyle
179
     2
170
     2
171
     1
172
     0
 90
        2
 40
0.0
 41
0.0
173
     1
 91
-1056964608
340
14
 92
       -2
290
     1
 42
2.0
291
     1
 43
0.36
  3
Standard
 44
4.0
300

342
11
174
     1
178
     6
175
     1
176
     0
 93
-1056964608
 45
4.0
292
     0
297
     0
 46
4.0
 94
-1056964608
 47
1.0
 49
1.0
140
1.0
293
     1
141
0.0
294
     1
177
     0
142
1.0
295
     0
296
     0
143
0.125
271
     0
272
     9
273
     9
298
     0
  0
MLINESTYLE
  5
18
102
{ACAD_REACTORS
330
17
102
}
330
17
100
AcDbMlineStyle
  2
STANDARD
 70
     0
  3

 62
   256
 51
90.0
 52
90.0
 71
     2
 49
0.5
 62
   256
  6
BYLAYER
 49
-0.5
 62
   256
  6
BYLAYER
  0
ACDBPLACEHOLDER
  5
F
102
{ACAD_REACTORS
330
E
102
}
330
E
  0
SCALE
  5
724
102
{ACAD_REACTORS
330
723
102
}
330
723
100
AcDbScale
 70
     0
300
1:1
140
1.0
141
1.0
290
     1
  0
SCALE
  5
725
102
{ACAD_REACTORS
330
723
102
}
330
723
100
AcDbScale
 70
     0
300
1:2
140
1.0
141
2.0
290
     0
  0
SCALE
  5
726
102
{ACAD_REACTORS
330
723
102
}
330
723
100
AcDbScale
 70
     0
300
1:4
140
1.0
141
4.0
290
     0
  0
SCALE
  5
727
102
{ACAD_REACTORS
330
723
102
}
330
723
100
AcDbScale
 70
     0
300
1:5
140
1.0
141
5.0
290
     0
  0
SCALE
  5
728
102
{ACAD_REACTORS
330
723
102
}
330
723
100
AcDbScale
 70
     0
300
1:8
140
1.0
141
8.0
290
     0
  0
SCALE
  5
729
102
{ACAD_REACTORS
330
723
102
}
330
723
100
AcDbScale
 70
     0
300
1:10
140
1.0
141
10.0
290
     0
  0
SCALE
  5
72A
102
{ACAD_REACTORS
330
723
102
}
330
723
100
AcDbScale
 70
     0
300
1:16
140
1.0
141
16.0
290
     0
  0
SCALE
  5
72B
102
{ACAD_REACTORS
330
723
102
}
330
723
100
AcDbScale
 70
     0
300
1:20
140
1.0
141
20.0
290
     0
  0
SCALE
  5
72C
102
{ACAD_REACTORS
330
723
102
}
330
723
100
AcDbScale
 70
     0
300
1:30
140
1.0
141
30.0
290
     0
  0
SCALE
  5
72D
102
{ACAD_REACTORS
330
723
102
}
330
723
100
AcDbScale
 70
     0
300
1:40
140
1.0
141
40.0
290
     0
  0
SCALE
  5
72E
102
{ACAD_REACTORS
330
723
102
}
330
723
100
AcDbScale
 70
     0
300
1:50
140
1.0
141
50.0
290
     0
  0
SCALE
  5
72F
102
{ACAD_REACTORS
330
723
102
}
330
723
100
AcDbScale
 70
     0
300
1:100
140
1.0
141
100.0
290
     0
  0
SCALE
  5
730
102
{ACAD_REACTORS
330
723
102
}
330
723
100
AcDbScale
 70
     0
300
2:1
140
2.0
141
1.0
290
     0
  0
SCALE
  5
731
102
{ACAD_REACTORS
330
723
102
}
330
723
100
AcDbScale
 70
     0
300
4:1
140
4.0
141
1.0
290
     0
  0
SCALE
  5
732
102
{ACAD_REACTORS
330
723
102
}
330
723
100
AcDbScale
 70
     0
300
8:1
140
8.0
141
1.0
290
     0
  0
SCALE
  5
733
102
{ACAD_REACTORS
330
723
102
}
330
723
100
AcDbScale
 70
     0
300
10:1
140
10.0
141
1.0
290
     0
  0
SCALE
  5
734
102
{ACAD_REACTORS
330
723
102
}
330
723
100
AcDbScale
 70
     0
300
100:1
140
100.0
141
1.0
290
     0
  0
ACDBSECTIONVIEWSTYLE
  5
738
102
{ACAD_REACTORS
330
737
102
}
330
737
100
AcDbModelDocViewStyle
 70
     0
  3
Metric50
290
     0
300
Metric50
 90
        0
100
AcDbSectionViewStyle
 70
     0
 71
     0
 90
      102
 71
     1
340
11
 62
   256
 40
5.0
340
0
340
0
 62
   256
 40
5.0
300
I, O, Q, S, X, Z
 40
10.0
 90
        0
 40
2.5
 90
        0
 71
     2
340
16
 90
       25
 62
   256
340
16
 90
       50
 62
   256
 40
5.0
 40
2.5
 40
5.0
 71
     3
340
11
 62
   256
 40
5.0
 90
        0
 40
15.0
 90
        1
300
%<\AcVar ViewSectionStartId>%-%<\AcVar ViewSectionEndId>% (%<\AcVar ViewScale \f "%sn">%)
 71
     4
 62
   256
 62
   257
300
ANSI31
 40
1.0
 90
        0
290
     0
290
     0
 90
        6
 40
0.0
 40
1.570796326794896
 40
0.2617993877991494
 40
1.308996938995747
 40
-0.2617993877991494
 40
1.832595714594045
  0
TABLESTYLE
  5
615
102
{ACAD_XDICTIONARY
360
787
102
}
102
{ACAD_REACTORS
330
614
102
}
330
614
100
AcDbTableStyle
280
     0
  3
Standard
 70
     0
 71
     0
 40
1.5
 41
1.5
280
     0
281
     0
  7
Standard
140
4.5
170
     2
 62
     0
 63
     7
283
     0
 90
        4
 91
        0
  1

274
    -2
284
     1
 64
     0
275
    -2
285
     1
 65
     0
276
    -2
286
     1
 66
     0
277
    -2
287
     1
 67
     0
278
    -2
288
     1
 68
     0
279
    -2
289
     1
 69
     0
  7
Standard
140
6.0
170
     5
 62
     0
 63
     7
283
     0
 90
        4
 91
        0
  1

274
    -2
284
     1
 64
     0
275
    -2
285
     1
 65
     0
276
    -2
286
     1
 66
     0
277
    -2
287
     1
 67
     0
278
    -2
288
     1
 68
     0
279
    -2
289
     1
 69
     0
  7
Standard
140
4.5
170
     5
 62
     0
 63
     7
283
     0
 90
        4
 91
        0
  1

274
    -2
284
     1
 64
     0
275
    -2
285
     1
 65
     0
276
    -2
286
     1
 66
     0
277
    -2
287
     1
 67
     0
278
    -2
288
     1
 68
     0
279
    -2
289
     1
 69
     0
  0
VISUALSTYLE
  5
710
102
{ACAD_REACTORS
330
70A
102
}
330
70A
100
AcDbVisualStyle
  2
2dWireframe
 70
     4
177
     3
291
     0
 70
    58
 90
        0
176
     1
 90
        2
176
     1
 90
        0
176
     1
 90
        0
176
     1
 40
0.6
176
     1
 40
30.0
176
     1
 62
     7
420
 16777215
176
     1
 90
        1
176
     1
 90
        4
176
     1
 62
     7
176
     1
 62
   257
176
     1
 90
        1
176
     1
 90
        1
176
     1
 40
1.0
176
     1
 90
        0
176
     1
 62
   257
176
     1
 40
1.0
176
     1
 90
        1
176
     1
 90
        6
176
     1
 90
        2
176
     1
 62
     7
176
     1
 90
        5
176
     1
 90
        0
176
     1
 90
        0
176
     1
290
     0
176
     1
 90
        1
176
     1
 40
0.0
176
     1
 90
        0
176
     1
290
     1
176
     1
290
     1
176
     1
290
     0
176
     1
290
     0
176
     1
290
     0
176
     1
290
     0
176
     1
290
     0
176
     1
290
     0
176
     1
290
     0
176
     1
 90
       50
176
     1
 40
0.0
176
     1
 40
1.0
176
     1
 90
        0
176
     1
 62
    18
176
     1
 90
       50
176
     1
 90
        3
176
     1
 62
     5
420
      255
176
     1
290
     0
176
     1
 90
       50
176
     1
 90
       50
176
     1
 90
       50
176
     1
290
     0
176
     1
 90
       50
176
     1
 62
   256
176
     0
 40
1.0
176
     0
 90
        2
176
     1
  1
strokes_ogs.tif
176
     1
290
     0
176
     1
 40
1.0
176
     1
 40
1.0
176
     1
  0
VISUALSTYLE
  5
70F
102
{ACAD_REACTORS
330
70A
102
}
330
70A
100
AcDbVisualStyle
  2
Basic
 70
     7
177
     3
291
     1
 70
    58
 90
        1
176
     1
 90
        0
176
     1
 90
        1
176
     1
 90
        0
176
     1
 40
0.6
176
     1
 40
30.0
176
     1
 62
     7
420
 16777215
176
     1
 90
        0
176
     1
 90
        4
176
     1
 62
     7
176
     1
 62
   257
176
     1
 90
        1
176
     1
 90
        1
176
     1
 40
1.0
176
     1
 90
        8
176
     1
 62
     7
176
     1
 40
1.0
176
     1
 90
        1
176
     1
 90
        6
176
     1
 90
        2
176
     1
 62
     7
176
     1
 90
        5
176
     1
 90
        0
176
     1
 90
        0
176
     1
290
     0
176
     1
 90
        1
176
     1
 40
0.0
176
     1
 90
        0
176
     1
290
     0
176
     1
290
     1
176
     1
290
     1
176
     1
290
     0
176
     1
290
     0
176
     1
290
     0
176
     1
290
     0
176
     1
290
     0
176
     1
290
     0
176
     1
 90
       50
176
     1
 40
0.0
176
     1
 40
1.0
176
     1
 90
        0
176
     1
 62
    18
176
     1
 90
       50
176
     1
 90
        3
176
     1
 62
     5
420
      255
176
     1
290
     0
176
     1
 90
       50
176
     1
 90
       50
176
     1
 90
       50
176
     1
290
     0
176
     1
 90
       50
176
     1
 62
   256
176
     0
 40
1.0
176
     0
 90
        2
176
     1
  1
strokes_ogs.tif
176
     1
290
     0
176
     1
 40
1.0
176
     1
 40
1.0
176
     1
  0
VISUALSTYLE
  5
716
102
{ACAD_REACTORS
330
70A
102
}
330
70A
100
AcDbVisualStyle
  2
Brighten
 70
    12
177
     3
291
     1
 70
    58
 90
        2
176
     1
 90
        2
176
     1
 90
        0
176
     1
 90
        0
176
     1
 40
0.6
176
     1
 40
30.0
176
     1
 62
     7
420
 16777215
176
     1
 90
        1
176
     1
 90
        4
176
     1
 62
     7
176
     1
 62
   257
176
     1
 90
        1
176
     1
 90
        1
176
     1
 40
1.0
176
     1
 90
        8
176
     1
 62
     7
176
     1
 40
1.0
176
     1
 90
        1
176
     1
 90
        6
176
     1
 90
        2
176
     1
 62
     7
176
     1
 90
        5
176
     1
 90
        0
176
     1
 90
        0
176
     1
290
     0
176
     1
 90
        1
176
     1
 40
50.0
176
     1
 90
        0
176
     1
290
     0
176
     1
290
     1
176
     1
290
     1
176
     1
290
     0
176
     1
290
     0
176
     1
290
     0
176
     1
290
     0
176
     1
290
     0
176
     1
290
     0
176
     1
 90
       50
176
     1
 40
0.0
176
     1
 40
1.0
176
     1
 90
        0
176
     1
 62
    18
176
     1
 90
       50
176
     1
 90
        3
176
     1
 62
     5
420
      255
176
     1
290
     0
176
     1
 90
       50
176
     1
 90
       50
176
     1
 90
       50
176
     1
290
     0
176
     1
 90
       50
176
     1
 62
   256
176
     0
 40
1.0
176
     0
 90
        2
176
     1
  1
strokes_ogs.tif
176
     1
290
     0
176
     1
 40
1.0
176
     1
 40
1.0
176
     1
  0
VISUALSTYLE
  5
71A
102
{ACAD_REACTORS
330
70A
102
}
330
70A
100
AcDbVisualStyle
  2
ColorChange
 70
    16
177
     3
291
     1
 70
    58
 90
        2
176
     1
 90
        2
176
     1
 90
        3
176
     1
 90
        0
176
     1
 40
0.6
176
     1
 40
30.0
176
     1
 62
     8
420
  8421504
176
     1
 90
        1
176
     1
 90
        4
176
     1
 62
     7
176
     1
 62
   257
176
     1
 90
        1
176
     1
 90
        1
176
     1
 40
1.0
176
     1
 90
        8
176
     1
 62
     8
420
  8421504
176
     1
 40
1.0
176
     1
 90
        1
176
     1
 90
        6
176
     1
 90
        2
176
     1
 62
     7
176
     1
 90
        5
176
     1
 90
        0
176
     1
 90
        0
176
     1
290
     0
176
     1
 90
        1
176
     1
 40
0.0
176
     1
 90
        0
176
     1
290
     0
176
     1
290
     1
176
     1
290
     1
176
     1
290
     0
176
     1
290
     0
176
     1
290
     0
176
     1
290
     0
176
     1
290
     0
176
     1
290
     0
176
     1
 90
       50
176
     1
 40
0.0
176
     1
 40
1.0
176
     1
 90
        0
176
     1
 62
    18
176
     1
 90
       50
176
     1
 90
        3
176
     1
 62
     5
420
      255
176
     1
290
     0
176
     1
 90
       50
176
     1
 90
       50
176
     1
 90
       50
176
     1
290
     0
176
     1
 90
       50
176
     1
 62
   256
176
     0
 40
1.0
176
     0
 90
        2
176
     1
  1
strokes_ogs.tif
176
     1
290
     0
176
     1
 40
1.0
176
     1
 40
1.0
176
     1
  0
VISUALSTYLE
  5
713
102
{ACAD_REACTORS
330
70A
102
}
330
70A
100
AcDbVisualStyle
  2
Conceptual
 70
     9
177
     3
291
     0
 70
    58
 90
        3
176
     1
 90
        2
176
     1
 90
        0
176
     1
 90
        0
176
     1
 40
0.6
176
     1
 40
30.0
176
     1
 62
     7
420
 16777215
176
     1
 90
        2
176
     1
 90
        2
176
     1
 62
     7
176
     1
 62
   257
176
     1
 90
        1
176
     1
 90
        1
176
     1
 40
179.0
176
     1
 90
        8
176
     1
 62
     7
176
     1
 40
1.0
176
     1
 90
        1
176
     1
 90
        6
176
     1
 90
        2
176
     1
 62
     7
176
     1
 90
        3
176
     1
 90
        0
176
     1
 90
        0
176
     1
290
     0
176
     1
 90
        1
176
     1
 40
0.0
176
     1
 90
        0
176
     1
290
     0
176
     1
290
     1
176
     1
290
     1
176
     1
290
     0
176
     1
290
     0
176
     1
290
     0
176
     1
290
     0
176
     1
290
     0
176
     1
290
     0
176
     1
 90
       50
176
     1
 40
0.0
176
     1
 40
1.0
176
     1
 90
        0
176
     1
 62
    18
176
     1
 90
       50
176
     1
 90
        3
176
     1
 62
     5
420
      255
176
     1
290
     0
176
     1
 90
       50
176
     1
 90
       50
176
     1
 90
       50
176
     1
290
     0
176
     1
 90
       50
176
     1
 62
   256
176
     0
 40
1.0
176
     0
 90
        2
176
     1
  1
strokes_ogs.tif
176
     1
290
     0
176
     1
 40
1.0
176
     1
 40
1.0
176
     1
  0
VISUALSTYLE
  5
715
102
{ACAD_REACTORS
330
70A
102
}
330
70A
100
AcDbVisualStyle
  2
Dim
 70
    11
177
     3
291
     1
 70
    58
 90
        2
176
     1
 90
        2
176
     1
 90
        0
176
     1
 90
        0
176
     1
 40
0.6
176
     1
 40
30.0
176
     1
 62
     7
420
 16777215
176
     1
 90
        1
176
     1
 90
        4
176
     1
 62
     7
176
     1
 62
   257
176
     1
 90
        1
176
     1
 90
        1
176
     1
 40
1.0
176
     1
 90
        8
176
     1
 62
     7
176
     1
 40
1.0
176
     1
 90
        1
176
     1
 90
        6
176
     1
 90
        2
176
     1
 62
     7
176
     1
 90
        5
176
     1
 90
        0
176
     1
 90
        0
176
     1
290
     0
176
     1
 90
        1
176
     1
 40
-50.0
176
     1
 90
        0
176
     1
290
     0
176
     1
290
     1
176
     1
290
     1
176
     1
290
     0
176
     1
290
     0
176
     1
290
     0
176
     1
290
     0
176
     1
290
     0
176
     1
290
     0
176
     1
 90
       50
176
     1
 40
0.0
176
     1
 40
1.0
176
     1
 90
        0
176
     1
 62
    18
176
     1
 90
       50
176
     1
 90
        3
176
     1
 62
     5
420
      255
176
     1
290
     0
176
     1
 90
       50
176
     1
 90
       50
176
     1
 90
       50
176
     1
290
     0
176
     1
 90
       50
176
     1
 62
   256
176
     0
 40
1.0
176
     0
 90
        2
176
     1
  1
strokes_ogs.tif
176
     1
290
     0
176
     1
 40
1.0
176
     1
 40
1.0
176
     1
  0
VISUALSTYLE
  5
722
102
{ACAD_REACTORS
330
70A
102
}
330
70A
100
AcDbVisualStyle
  2
EdgeColorOff
 70
    22
177
     3
291
     1
 70
    58
 90
        2
176
     0
 90
        2
176
     0
 90
        0
176
     0
 90
        0
176
     0
 40
0.6
176
     0
 40
30.0
176
     0
 62
     7
420
 16777215
176
     0
 90
        1
176
     0
 90
        4
176
     0
 62
     7
176
     0
 62
   257
176
     0
 90
        1
176
     0
 90
        1
176
     0
 40
1.0
176
     0
 90
        8
176
     2
 62
     7
176
     0
 40
1.0
176
     0
 90
        1
176
     0
 90
        6
176
     0
 90
        2
176
     0
 62
     7
176
     0
 90
        5
176
     0
 90
        0
176
     0
 90
        0
176
     0
290
     0
176
     0
 90
        1
176
     0
 40
0.0
176
     0
 90
        0
176
     0
290
     0
176
     1
290
     1
176
     1
290
     1
176
     1
290
     0
176
     1
290
     0
176
     1
290
     0
176
     1
290
     0
176
     1
290
     0
176
     1
290
     0
176
     1
 90
       50
176
     0
 40
0.0
176
     0
 40
1.0
176
     0
 90
        0
176
     0
 62
    18
176
     0
 90
       50
176
     0
 90
        3
176
     0
 62
     5
420
      255
176
     0
290
     0
176
     1
 90
       50
176
     0
 90
       50
176
     0
 90
       50
176
     0
290
     0
176
     1
 90
       50
176
     0
 62
   256
176
     0
 40
1.0
176
     0
 90
        2
176
     0
  1
strokes_ogs.tif
176
     0
290
     0
176
     1
 40
1.0
176
     0
 40
1.0
176
     0
  0
VISUALSTYLE
  5
719
102
{ACAD_REACTORS
330
70A
102
}
330
70A
100
AcDbVisualStyle
  2
Facepattern
 70
    15
177
     3
291
     1
 70
    58
 90
        2
176
     1
 90
        2
176
     1
 90
        0
176
     1
 90
        0
176
     1
 40
0.6
176
     1
 40
30.0
176
     1
 62
     7
420
 16777215
176
     1
 90
        1
176
     1
 90
        4
176
     1
 62
     7
176
     1
 62
   257
176
     1
 90
        1
176
     1
 90
        1
176
     1
 40
1.0
176
     1
 90
        8
176
     1
 62
     7
176
     1
 40
1.0
176
     1
 90
        1
176
     1
 90
        6
176
     1
 90
        2
176
     1
 62
     7
176
     1
 90
        5
176
     1
 90
        0
176
     1
 90
        0
176
     1
290
     0
176
     1
 90
        1
176
     1
 40
0.0
176
     1
 90
        0
176
     1
290
     0
176
     1
290
     1
176
     1
290
     1
176
     1
290
     0
176
     1
290
     0
176
     1
290
     0
176
     1
290
     0
176
     1
290
     0
176
     1
290
     0
176
     1
 90
       50
176
     1
 40
0.0
176
     1
 40
1.0
176
     1
 90
        0
176
     1
 62
    18
176
     1
 90
       50
176
     1
 90
        3
176
     1
 62
     5
420
      255
176
     1
290
     0
176
     1
 90
       50
176
     1
 90
       50
176
     1
 90
       50
176
     1
290
     0
176
     1
 90
       50
176
     1
 62
   256
176
     0
 40
1.0
176
     0
 90
        2
176
     1
  1
strokes_ogs.tif
176
     1
290
     0
176
     1
 40
1.0
176
     1
 40
1.0
176
     1
  0
VISUALSTYLE
  5
70B
102
{ACAD_REACTORS
330
70A
102
}
330
70A
100
AcDbVisualStyle
  2
Flat
 70
     0
177
     3
291
     1
 70
    58
 90
        2
176
     1
 90
        1
176
     1
 90
        1
176
     1
 90
        2
176
     1
 40
0.6
176
     1
 40
30.0
176
     1
 62
     7
420
 16777215
176
     1
 90
        0
176
     1
 90
        0
176
     1
 62
     7
176
     1
 62
   257
176
     1
 90
        1
176
     1
 90
        1
176
     1
 40
1.0
176
     1
 90
        8
176
     1
 62
     7
176
     1
 40
1.0
176
     1
 90
        1
176
     1
 90
        6
176
     1
 90
        2
176
     1
 62
     7
176
     1
 90
        5
176
     1
 90
        0
176
     1
 90
        0
176
     1
290
     0
176
     1
 90
       13
176
     1
 40
0.0
176
     1
 90
        0
176
     1
290
     0
176
     1
290
     1
176
     1
290
     1
176
     1
290
     0
176
     1
290
     0
176
     1
290
     0
176
     1
290
     0
176
     1
290
     0
176
     1
290
     0
176
     1
 90
       50
176
     1
 40
0.0
176
     1
 40
1.0
176
     1
 90
        0
176
     1
 62
    18
176
     1
 90
       50
176
     1
 90
        3
176
     1
 62
     5
420
      255
176
     1
290
     0
176
     1
 90
       50
176
     1
 90
       50
176
     1
 90
       50
176
     1
290
     0
176
     1
 90
       50
176
     1
 62
   256
176
     0
 40
1.0
176
     0
 90
        2
176
     1
  1
strokes_ogs.tif
176
     1
290
     0
176
     1
 40
1.0
176
     1
 40
1.0
176
     1
  0
VISUALSTYLE
  5
70C
102
{ACAD_REACTORS
330
70A
102
}
330
70A
100
AcDbVisualStyle
  2
FlatWithEdges
 70
     1
177
     3
291
     1
 70
    58
 90
        2
176
     1
 90
        1
176
     1
 90
        1
176
     1
 90
        2
176
     1
 40
0.6
176
     1
 40
30.0
176
     1
 62
     7
420
 16777215
176
     1
 90
        1
176
     1
 90
        0
176
     1
 62
     7
176
     1
 62
   257
176
     1
 90
        1
176
     1
 90
        1
176
     1
 40
1.0
176
     1
 90
        0
176
     1
 62
   257
176
     1
 40
1.0
176
     1
 90
        1
176
     1
 90
        6
176
     1
 90
        2
176
     1
 62
     7
176
     1
 90
        5
176
     1
 90
        0
176
     1
 90
        0
176
     1
290
     0
176
     1
 90
       13
176
     1
 40
0.0
176
     1
 90
        0
176
     1
290
     0
176
     1
290
     1
176
     1
290
     1
176
     1
290
     0
176
     1
290
     0
176
     1
290
     0
176
     1
290
     0
176
     1
290
     0
176
     1
290
     0
176
     1
 90
       50
176
     1
 40
0.0
176
     1
 40
1.0
176
     1
 90
        0
176
     1
 62
    18
176
     1
 90
       50
176
     1
 90
        3
176
     1
 62
     5
420
      255
176
     1
290
     0
176
     1
 90
       50
176
     1
 90
       50
176
     1
 90
       50
176
     1
290
     0
176
     1
 90
       50
176
     1
 62
   256
176
     0
 40
1.0
176
     0
 90
        2
176
     1
  1
strokes_ogs.tif
176
     1
290
     0
176
     1
 40
1.0
176
     1
 40
1.0
176
     1
  0
VISUALSTYLE
  5
70D
102
{ACAD_REACTORS
330
70A
102
}
330
70A
100
AcDbVisualStyle
  2
Gouraud
 70
     2
177
     3
291
     1
 70
    58
 90
        2
176
     1
 90
        2
176
     1
 90
        1
176
     1
 90
        2
176
     1
 40
0.6
176
     1
 40
30.0
176
     1
 62
     7
420
 16777215
176
     1
 90
        0
176
     1
 90
        0
176
     1
 62
     7
176
     1
 62
   257
176
     1
 90
        1
176
     1
 90
        1
176
     1
 40
1.0
176
     1
 90
        0
176
     1
 62
     7
176
     1
 40
1.0
176
     1
 90
        1
176
     1
 90
        6
176
     1
 90
        2
176
     1
 62
     7
176
     1
 90
        5
176
     1
 90
        0
176
     1
 90
        0
176
     1
290
     0
176
     1
 90
       13
176
     1
 40
0.0
176
     1
 90
        0
176
     1
290
     0
176
     1
290
     1
176
     1
290
     1
176
     1
290
     0
176
     1
290
     0
176
     1
290
     0
176
     1
290
     0
176
     1
290
     0
176
     1
290
     0
176
     1
 90
       50
176
     1
 40
0.0
176
     1
 40
1.0
176
     1
 90
        0
176
     1
 62
    18
176
     1
 90
       50
176
     1
 90
        3
176
     1
 62
     5
420
      255
176
     1
290
     0
176
     1
 90
       50
176
     1
 90
       50
176
     1
 90
       50
176
     1
290
     0
176
     1
 90
       50
176
     1
 62
   256
176
     0
 40
1.0
176
     0
 90
        2
176
     1
  1
strokes_ogs.tif
176
     1
290
     0
176
     1
 40
1.0
176
     1
 40
1.0
176
     1
  0
VISUALSTYLE
  5
70E
102
{ACAD_REACTORS
330
70A
102
}
330
70A
100
AcDbVisualStyle
  2
GouraudWithEdges
 70
     3
177
     3
291
     1
 70
    58
 90
        2
176
     1
 90
        2
176
     1
 90
        1
176
     1
 90
        2
176
     1
 40
0.6
176
     1
 40
30.0
176
     1
 62
     7
420
 16777215
176
     1
 90
        1
176
     1
 90
        0
176
     1
 62
     7
176
     1
 62
   257
176
     1
 90
        1
176
     1
 90
        1
176
     1
 40
1.0
176
     1
 90
        0
176
     1
 62
   257
176
     1
 40
1.0
176
     1
 90
        1
176
     1
 90
        6
176
     1
 90
        2
176
     1
 62
     7
176
     1
 90
        5
176
     1
 90
        0
176
     1
 90
        0
176
     1
290
     0
176
     1
 90
       13
176
     1
 40
0.0
176
     1
 90
        0
176
     1
290
     0
176
     1
290
     1
176
     1
290
     1
176
     1
290
     0
176
     1
290
     0
176
     1
290
     0
176
     1
290
     0
176
     1
290
     0
176
     1
290
     0
176
     1
 90
       50
176
     1
 40
0.0
176
     1
 40
1.0
176
     1
 90
        0
176
     1
 62
    18
176
     1
 90
       50
176
     1
 90
        3
176
     1
 62
     5
420
      255
176
     1
290
     0
176
     1
 90
       50
176
     1
 90
       50
176
     1
 90
       50
176
     1
290
     0
176
     1
 90
       50
176
     1
 62
   256
176
     0
 40
1.0
176
     0
 90
        2
176
     1
  1
strokes_ogs.tif
176
     1
290
     0
176
     1
 40
1.0
176
     1
 40
1.0
176
     1
  0
VISUALSTYLE
  5
712
102
{ACAD_REACTORS
330
70A
102
}
330
70A
100
AcDbVisualStyle
  2
Hidden
 70
     6
177
     3
291
     0
 70
    58
 90
        1
176
     1
 90
        2
176
     1
 90
        2
176
     1
 90
        0
176
     1
 40
0.6
176
     1
 40
30.0
176
     1
 62
     7
420
 16777215
176
     1
 90
        2
176
     1
 90
        2
176
     1
 62
     7
176
     1
 62
   257
176
     1
 90
        2
176
     1
 90
        1
176
     1
 40
40.0
176
     1
 90
        0
176
     1
 62
   257
176
     1
 40
1.0
176
     1
 90
        1
176
     1
 90
        6
176
     1
 90
        2
176
     1
 62
     7
176
     1
 90
        3
176
     1
 90
        0
176
     1
 90
        0
176
     1
290
     0
176
     1
 90
        1
176
     1
 40
0.0
176
     1
 90
        0
176
     1
290
     0
176
     1
290
     1
176
     1
290
     1
176
     1
290
     0
176
     1
290
     0
176
     1
290
     0
176
     1
290
     0
176
     1
290
     0
176
     1
290
     0
176
     1
 90
       50
176
     1
 40
0.0
176
     1
 40
1.0
176
     1
 90
        0
176
     1
 62
    18
176
     1
 90
       50
176
     1
 90
        3
176
     1
 62
     5
420
      255
176
     1
290
     0
176
     1
 90
       50
176
     1
 90
       50
176
     1
 90
       50
176
     1
290
     0
176
     1
 90
       50
176
     1
 62
   256
176
     0
 40
1.0
176
     0
 90
        2
176
     1
  1
strokes_ogs.tif
176
     1
290
     0
176
     1
 40
1.0
176
     1
 40
1.0
176
     1
  0
VISUALSTYLE
  5
720
102
{ACAD_REACTORS
330
70A
102
}
330
70A
100
AcDbVisualStyle
  2
JitterOff
 70
    20
177
     3
291
     1
 70
    58
 90
        2
176
     0
 90
        2
176
     0
 90
        0
176
     0
 90
        0
176
     0
 40
0.6
176
     0
 40
30.0
176
     0
 62
     7
420
 16777215
176
     0
 90
        1
176
     0
 90
        4
176
     0
 62
     7
176
     0
 62
   257
176
     0
 90
        1
176
     0
 90
        1
176
     0
 40
1.0
176
     0
 90
       10
176
     2
 62
     7
176
     0
 40
1.0
176
     0
 90
        1
176
     0
 90
        6
176
     0
 90
        2
176
     0
 62
     7
176
     0
 90
        5
176
     0
 90
        0
176
     0
 90
        0
176
     0
290
     0
176
     0
 90
        1
176
     0
 40
0.0
176
     0
 90
        0
176
     0
290
     0
176
     1
290
     1
176
     1
290
     1
176
     1
290
     0
176
     1
290
     0
176
     1
290
     0
176
     1
290
     0
176
     1
290
     0
176
     1
290
     0
176
     1
 90
       50
176
     0
 40
0.0
176
     0
 40
1.0
176
     0
 90
        0
176
     0
 62
    18
176
     0
 90
       50
176
     0
 90
        3
176
     0
 62
     5
420
      255
176
     0
290
     0
176
     1
 90
       50
176
     0
 90
       50
176
     0
 90
       50
176
     0
290
     0
176
     1
 90
       50
176
     0
 62
   256
176
     0
 40
1.0
176
     0
 90
        2
176
     0
  1
strokes_ogs.tif
176
     0
290
     0
176
     1
 40
1.0
176
     0
 40
1.0
176
     0
  0
VISUALSTYLE
  5
718
102
{ACAD_REACTORS
330
70A
102
}
330
70A
100
AcDbVisualStyle
  2
Linepattern
 70
    14
177
     3
291
     1
 70
    58
 90
        2
176
     1
 90
        2
176
     1
 90
        0
176
     1
 90
        0
176
     1
 40
0.6
176
     1
 40
30.0
176
     1
 62
     7
420
 16777215
176
     1
 90
        1
176
     1
 90
        4
176
     1
 62
     7
176
     1
 62
   257
176
     1
 90
        7
176
     1
 90
        7
176
     1
 40
1.0
176
     1
 90
        8
176
     1
 62
     7
176
     1
 40
1.0
176
     1
 90
        1
176
     1
 90
        6
176
     1
 90
        2
176
     1
 62
     7
176
     1
 90
        5
176
     1
 90
        0
176
     1
 90
        0
176
     1
290
     0
176
     1
 90
        1
176
     1
 40
0.0
176
     1
 90
        0
176
     1
290
     0
176
     1
290
     1
176
     1
290
     1
176
     1
290
     0
176
     1
290
     0
176
     1
290
     0
176
     1
290
     0
176
     1
290
     0
176
     1
290
     0
176
     1
 90
       50
176
     1
 40
0.0
176
     1
 40
1.0
176
     1
 90
        0
176
     1
 62
    18
176
     1
 90
       50
176
     1
 90
        3
176
     1
 62
     5
420
      255
176
     1
290
     0
176
     1
 90
       50
176
     1
 90
       50
176
     1
 90
       50
176
     1
290
     0
176
     1
 90
       50
176
     1
 62
   256
176
     0
 40
1.0
176
     0
 90
        2
176
     1
  1
strokes_ogs.tif
176
     1
290
     0
176
     1
 40
1.0
176
     1
 40
1.0
176
     1
  0
VISUALSTYLE
  5
721
102
{ACAD_REACTORS
330
70A
102
}
330
70A
100
AcDbVisualStyle
  2
OverhangOff
 70
    21
177
     3
291
     1
 70
    58
 90
        2
176
     0
 90
        2
176
     0
 90
        0
176
     0
 90
        0
176
     0
 40
0.6
176
     0
 40
30.0
176
     0
 62
     7
420
 16777215
176
     0
 90
        1
176
     0
 90
        4
176
     0
 62
     7
176
     0
 62
   257
176
     0
 90
        1
176
     0
 90
        1
176
     0
 40
1.0
176
     0
 90
        9
176
     2
 62
     7
176
     0
 40
1.0
176
     0
 90
        1
176
     0
 90
        6
176
     0
 90
        2
176
     0
 62
     7
176
     0
 90
        5
176
     0
 90
        0
176
     0
 90
        0
176
     0
290
     0
176
     0
 90
        1
176
     0
 40
0.0
176
     0
 90
        0
176
     0
290
     0
176
     1
290
     1
176
     1
290
     1
176
     1
290
     0
176
     1
290
     0
176
     1
290
     0
176
     1
290
     0
176
     1
290
     0
176
     1
290
     0
176
     1
 90
       50
176
     0
 40
0.0
176
     0
 40
1.0
176
     0
 90
        0
176
     0
 62
    18
176
     0
 90
       50
176
     0
 90
        3
176
     0
 62
     5
420
      255
176
     0
290
     0
176
     1
 90
       50
176
     0
 90
       50
176
     0
 90
       50
176
     0
290
     0
176
     1
 90
       50
176
     0
 62
   256
176
     0
 40
1.0
176
     0
 90
        2
176
     0
  1
strokes_ogs.tif
176
     0
290
     0
176
     1
 40
1.0
176
     0
 40
1.0
176
     0
  0
VISUALSTYLE
  5
714
102
{ACAD_REACTORS
330
70A
102
}
330
70A
100
AcDbVisualStyle
  2
Realistic
 70
     8
177
     3
291
     0
 70
    58
 90
        2
176
     1
 90
        3
176
     1
 90
        0
176
     1
 90
        2
176
     1
 40
0.6
176
     1
 40
30.0
176
     1
 62
     7
420
 16777215
176
     1
 90
        0
176
     1
 90
        0
176
     1
 62
     7
176
     1
 62
   257
176
     1
 90
        1
176
     1
 90
        1
176
     1
 40
1.0
176
     1
 90
        8
176
     1
 62
   257
176
     1
 40
1.0
176
     1
 90
        1
176
     1
 90
        6
176
     1
 90
        2
176
     1
 62
     7
176
     1
 90
        3
176
     1
 90
        0
176
     1
 90
        0
176
     1
290
     0
176
     1
 90
       13
176
     1
 40
0.0
176
     1
 90
        0
176
     1
290
     0
176
     1
290
     1
176
     1
290
     1
176
     1
290
     0
176
     1
290
     0
176
     1
290
     0
176
     1
290
     0
176
     1
290
     0
176
     1
290
     0
176
     1
 90
       50
176
     1
 40
0.0
176
     1
 40
1.0
176
     1
 90
        0
176
     1
 62
    18
176
     1
 90
       50
176
     1
 90
        3
176
     1
 62
     5
420
      255
176
     1
290
     0
176
     1
 90
       50
176
     1
 90
       50
176
     1
 90
       50
176
     1
290
     0
176
     1
 90
       50
176
     1
 62
   256
176
     0
 40
1.0
176
     0
 90
        2
176
     1
  1
strokes_ogs.tif
176
     1
290
     0
176
     1
 40
1.0
176
     1
 40
1.0
176
     1
  0
VISUALSTYLE
  5
71F
102
{ACAD_REACTORS
330
70A
102
}
330
70A
100
AcDbVisualStyle
  2
Shaded
 70
    27
177
     3
291
     0
 70
    58
 90
        2
176
     1
 90
        2
176
     1
 90
        1
176
     1
 90
        2
176
     1
 40
0.6
176
     1
 40
30.0
176
     1
 62
     7
420
 16777215
176
     1
 90
        0
176
     1
 90
        4
176
     1
 62
     7
176
     1
 62
   257
176
     1
 90
        1
176
     1
 90
        1
176
     1
 40
1.0
176
     1
 90
        8
176
     1
 62
   257
176
     1
 40
1.0
176
     1
 90
        1
176
     1
 90
        6
176
     1
 90
        2
176
     1
 62
     8
420
  7895160
176
     1
 90
        3
176
     1
 90
        0
176
     1
 90
        0
176
     1
290
     0
176
     1
 90
        5
176
     1
 40
0.0
176
     1
 90
        0
176
     1
290
     0
176
     1
290
     1
176
     1
290
     1
176
     1
290
     0
176
     1
290
     0
176
     1
290
     0
176
     1
290
     0
176
     1
290
     0
176
     1
290
     0
176
     1
 90
       50
176
     1
 40
0.0
176
     1
 40
1.0
176
     1
 90
        0
176
     1
 62
    18
176
     1
 90
       50
176
     1
 90
        3
176
     1
 62
     5
420
      255
176
     1
290
     0
176
     1
 90
       50
176
     1
 90
       50
176
     1
 90
       50
176
     1
290
     0
176
     1
 90
       50
176
     1
 62
   256
176
     0
 40
1.0
176
     0
 90
        2
176
     1
  1
strokes_ogs.tif
176
     1
290
     0
176
     1
 40
1.0
176
     1
 40
1.0
176
     1
  0
VISUALSTYLE
  5
71E
102
{ACAD_REACTORS
330
70A
102
}
330
70A
100
AcDbVisualStyle
  2
Shaded with edges
 70
    26
177
     3
291
     0
 70
    58
 90
        2
176
     1
 90
        2
176
     1
 90
        1
176
     1
 90
        2
176
     1
 40
0.6
176
     1
 40
30.0
176
     1
 62
     7
420
 16777215
176
     1
 90
        1
176
     1
 90
        2
176
     1
 62
     7
176
     1
 62
   257
176
     1
 90
        2
176
     1
 90
        1
176
     1
 40
1.0
176
     1
 90
        8
176
     1
 62
   257
176
     1
 40
1.0
176
     1
 90
        1
176
     1
 90
        6
176
     1
 90
        2
176
     1
 62
     7
176
     1
 90
        3
176
     1
 90
        0
176
     1
 90
        0
176
     1
290
     0
176
     1
 90
        5
176
     1
 40
0.0
176
     1
 90
        0
176
     1
290
     0
176
     1
290
     1
176
     1
290
     1
176
     1
290
     0
176
     1
290
     0
176
     1
290
     0
176
     1
290
     0
176
     1
290
     0
176
     1
290
     0
176
     1
 90
       50
176
     1
 40
0.0
176
     1
 40
1.0
176
     1
 90
        0
176
     1
 62
    18
176
     1
 90
       50
176
     1
 90
        3
176
     1
 62
     5
420
      255
176
     1
290
     0
176
     1
 90
       50
176
     1
 90
       50
176
     1
 90
       50
176
     1
290
     0
176
     1
 90
       50
176
     1
 62
   256
176
     0
 40
1.0
176
     0
 90
        2
176
     1
  1
strokes_ogs.tif
176
     1
290
     0
176
     1
 40
1.0
176
     1
 40
1.0
176
     1
  0
VISUALSTYLE
  5
71B
102
{ACAD_REACTORS
330
70A
102
}
330
70A
100
AcDbVisualStyle
  2
Shades of Gray
 70
    23
177
     3
291
     0
 70
    58
 90
        2
176
     1
 90
        2
176
     1
 90
        3
176
     1
 90
        0
176
     1
 40
0.6
176
     1
 40
30.0
176
     1
 62
     7
420
 16777215
176
     1
 90
        2
176
     1
 90
        2
176
     1
 62
     7
176
     1
 62
     7
176
     1
 90
        1
176
     1
 90
        1
176
     1
 40
40.0
176
     1
 90
        8
176
     1
 62
     7
176
     1
 40
1.0
176
     1
 90
        1
176
     1
 90
        6
176
     1
 90
        2
176
     1
 62
     7
176
     1
 90
        3
176
     1
 90
        0
176
     1
 90
        0
176
     1
290
     0
176
     1
 90
        1
176
     1
 40
0.0
176
     1
 90
        0
176
     1
290
     0
176
     1
290
     1
176
     1
290
     1
176
     1
290
     0
176
     1
290
     0
176
     1
290
     0
176
     1
290
     0
176
     1
290
     0
176
     1
290
     0
176
     1
 90
       50
176
     1
 40
0.0
176
     1
 40
1.0
176
     1
 90
        0
176
     1
 62
    18
176
     1
 90
       50
176
     1
 90
        3
176
     1
 62
     5
420
      255
176
     1
290
     0
176
     1
 90
       50
176
     1
 90
       50
176
     1
 90
       50
176
     1
290
     0
176
     1
 90
       50
176
     1
 62
   256
176
     0
 40
1.0
176
     0
 90
        2
176
     1
  1
strokes_ogs.tif
176
     1
290
     0
176
     1
 40
1.0
176
     1
 40
1.0
176
     1
  0
VISUALSTYLE
  5
71C
102
{ACAD_REACTORS
330
70A
102
}
330
70A
100
AcDbVisualStyle
  2
Sketchy
 70
    24
177
     3
291
     0
 70
    58
 90
        1
176
     1
 90
        2
176
     1
 90
        2
176
     1
 90
        0
176
     1
 40
0.6
176
     1
 40
30.0
176
     1
 62
     7
420
 16777215
176
     1
 90
        2
176
     1
 90
        2
176
     1
 62
     7
176
     1
 62
     7
176
     1
 90
        1
176
     1
 90
        1
176
     1
 40
40.0
176
     1
 90
       11
176
     1
 62
     7
176
     1
 40
1.0
176
     1
 90
        1
176
     1
 90
        6
176
     1
 90
        2
176
     1
 62
     7
176
     1
 90
        6
176
     1
 90
        0
176
     1
 90
        0
176
     1
290
     0
176
     1
 90
        1
176
     1
 40
0.0
176
     1
 90
        0
176
     1
290
     0
176
     1
290
     1
176
     1
290
     1
176
     1
290
     0
176
     1
290
     0
176
     1
290
     0
176
     1
290
     0
176
     1
290
     0
176
     1
290
     0
176
     1
 90
       50
176
     1
 40
0.0
176
     1
 40
1.0
176
     1
 90
        0
176
     1
 62
    18
176
     1
 90
       50
176
     1
 90
        3
176
     1
 62
     5
420
      255
176
     1
290
     0
176
     1
 90
       50
176
     1
 90
       50
176
     1
 90
       50
176
     1
290
     0
176
     1
 90
       50
176
     1
 62
   256
176
     0
 40
1.0
176
     0
 90
        2
176
     1
  1
strokes_ogs.tif
176
     1
290
     0
176
     1
 40
1.0
176
     1
 40
1.0
176
     1
  0
VISUALSTYLE
  5
717
102
{ACAD_REACTORS
330
70A
102
}
330
70A
100
AcDbVisualStyle
  2
Thicken
 70
    13
177
     3
291
     1
 70
    58
 90
        2
176
     1
 90
        2
176
     1
 90
        0
176
     1
 90
        0
176
     1
 40
0.6
176
     1
 40
30.0
176
     1
 62
     7
420
 16777215
176
     1
 90
        1
176
     1
 90
        4
176
     1
 62
     7
176
     1
 62
   257
176
     1
 90
        1
176
     1
 90
        1
176
     1
 40
1.0
176
     1
 90
       12
176
     1
 62
     7
176
     1
 40
1.0
176
     1
 90
        1
176
     1
 90
        6
176
     1
 90
        2
176
     1
 62
     7
176
     1
 90
        5
176
     1
 90
        0
176
     1
 90
        0
176
     1
290
     0
176
     1
 90
        1
176
     1
 40
0.0
176
     1
 90
        0
176
     1
290
     0
176
     1
290
     1
176
     1
290
     1
176
     1
290
     0
176
     1
290
     0
176
     1
290
     0
176
     1
290
     0
176
     1
290
     0
176
     1
290
     0
176
     1
 90
       50
176
     1
 40
0.0
176
     1
 40
1.0
176
     1
 90
        0
176
     1
 62
    18
176
     1
 90
       50
176
     1
 90
        3
176
     1
 62
     5
420
      255
176
     1
290
     0
176
     1
 90
       50
176
     1
 90
       50
176
     1
 90
       50
176
     1
290
     0
176
     1
 90
       50
176
     1
 62
   256
176
     0
 40
1.0
176
     0
 90
        2
176
     1
  1
strokes_ogs.tif
176
     1
290
     0
176
     1
 40
1.0
176
     1
 40
1.0
176
     1
  0
VISUALSTYLE
  5
711
102
{ACAD_REACTORS
330
70A
102
}
330
70A
100
AcDbVisualStyle
  2
Wireframe
 70
     5
177
     3
291
     0
 70
    58
 90
        0
176
     1
 90
        2
176
     1
 90
        0
176
     1
 90
        0
176
     1
 40
0.6
176
     1
 40
30.0
176
     1
 62
     7
420
 16777215
176
     1
 90
        1
176
     1
 90
        4
176
     1
 62
     7
176
     1
 62
   257
176
     1
 90
        1
176
     1
 90
        1
176
     1
 40
1.0
176
     1
 90
        0
176
     1
 62
   257
176
     1
 40
1.0
176
     1
 90
        1
176
     1
 90
        6
176
     1
 90
        2
176
     1
 62
     7
176
     1
 90
        3
176
     1
 90
        0
176
     1
 90
        0
176
     1
290
     0
176
     1
 90
        1
176
     1
 40
0.0
176
     1
 90
        0
176
     1
290
     0
176
     1
290
     1
176
     1
290
     1
176
     1
290
     0
176
     1
290
     0
176
     1
290
     0
176
     1
290
     0
176
     1
290
     0
176
     1
290
     0
176
     1
 90
       50
176
     1
 40
0.0
176
     1
 40
1.0
176
     1
 90
        0
176
     1
 62
    18
176
     1
 90
       50
176
     1
 90
        3
176
     1
 62
     5
420
      255
176
     1
290
     0
176
     1
 90
       50
176
     1
 90
       50
176
     1
 90
       50
176
     1
290
     0
176
     1
 90
       50
176
     1
 62
   256
176
     0
 40
1.0
176
     0
 90
        2
176
     1
  1
strokes_ogs.tif
176
     1
290
     0
176
     1
 40
1.0
176
     1
 40
1.0
176
     1
  0
VISUALSTYLE
  5
71D
102
{ACAD_REACTORS
330
70A
102
}
330
70A
100
AcDbVisualStyle
  2
X-Ray
 70
    25
177
     3
291
     0
 70
    58
 90
        2
176
     1
 90
        2
176
     1
 90
        1
176
     1
 90
        1
176
     1
 40
0.5
176
     1
 40
30.0
176
     1
 62
     7
420
 16777215
176
     1
 90
        1
176
     1
 90
        0
176
     1
 62
     7
176
     1
 62
   257
176
     1
 90
        1
176
     1
 90
        1
176
     1
 40
1.0
176
     1
 90
        8
176
     1
 62
     7
176
     1
 40
1.0
176
     1
 90
        1
176
     1
 90
        6
176
     1
 90
        2
176
     1
 62
     7
176
     1
 90
        3
176
     1
 90
        0
176
     1
 90
        0
176
     1
290
     0
176
     1
 90
       13
176
     1
 40
0.0
176
     1
 90
        0
176
     1
290
     0
176
     1
290
     1
176
     1
290
     1
176
     1
290
     0
176
     1
290
     0
176
     1
290
     0
176
     1
290
     0
176
     1
290
     0
176
     1
290
     0
176
     1
 90
       50
176
     1
 40
0.0
176
     1
 40
1.0
176
     1
 90
        0
176
     1
 62
    18
176
     1
 90
       50
176
     1
 90
        3
176
     1
 62
     5
420
      255
176
     1
290
     0
176
     1
 90
       50
176
     1
 90
       50
176
     1
 90
       50
176
     1
290
     0
176
     1
 90
       50
176
     1
 62
   256
176
     0
 40
1.0
176
     0
 90
        2
176
     1
  1
strokes_ogs.tif
176
     1
290
     0
176
     1
 40
1.0
176
     1
 40
1.0
176
     1
  0
DICTIONARYVAR
  5
782
102
{ACAD_REACTORS
330
5E
102
}
330
5E
100
DictionaryVariables
280
     0
  1
1:1
  0
DICTIONARYVAR
  5
77E
102
{ACAD_REACTORS
330
5E
102
}
330
5E
100
DictionaryVariables
280
     0
  1
STANDARD
  0
DICTIONARYVAR
  5
663
102
{ACAD_REACTORS
330
5E
102
}
330
5E
100
DictionaryVariables
280
     0
  1
STANDARD
  0
DICTIONARYVAR
  5
77F
102
{ACAD_REACTORS
330
5E
102
}
330
5E
100
DictionaryVariables
280
     0
  1
Metric50
  0
DICTIONARYVAR
  5
780
102
{ACAD_REACTORS
330
5E
102
}
330
5E
100
DictionaryVariables
280
     0
  1
Metric50
  0
DICTIONARYVAR
  5
5F
102
{ACAD_REACTORS
330
5E
102
}
330
5E
100
DictionaryVariables
280
     0
  1
2
  0
DICTIONARYVAR
  5
63
102
{ACAD_REACTORS
330
5E
102
}
330
5E
100
DictionaryVariables
280
     0
  1
1
  0
DICTIONARYVAR
  5
784
102
{ACAD_REACTORS
330
5E
102
}
330
5E
100
DictionaryVariables
280
     0
  1
1
  0
DICTIONARYVAR
  5
785
102
{ACAD_REACTORS
330
5E
102
}
330
5E
100
DictionaryVariables
280
     0
  1
15
  0
DICTIONARYVAR
  5
783
102
{ACAD_REACTORS
330
5E
102
}
330
5E
100
DictionaryVariables
280
     0
  1
0
  0
DICTIONARYVAR
  5
781
102
{ACAD_REACTORS
330
5E
102
}
330
5E
100
DictionaryVariables
280
     0
  1
0
  0
DICTIONARY
  5
6FB
330
6FA
100
AcDbDictionary
280
     1
281
     1
  3
BUMPTILE
360
6FD
  3
DIFFUSETILE
360
6FC
  3
OPACITYTILE
360
700
  3
REFLECTIONTILE
360
6FF
  3
REFRACTIONTILE
360
701
  3
SPECULARTILE
360
6FE
  0
DICTIONARY
  5
6F3
330
6F2
100
AcDbDictionary
280
     1
281
     1
  3
BUMPTILE
360
6F5
  3
DIFFUSETILE
360
6F4
  3
OPACITYTILE
360
6F8
  3
REFLECTIONTILE
360
6F7
  3
REFRACTIONTILE
360
6F9
  3
SPECULARTILE
360
6F6
  0
DICTIONARY
  5
703
330
702
100
AcDbDictionary
280
     1
281
     1
  3
BUMPTILE
360
705
  3
DIFFUSETILE
360
704
  3
OPACITYTILE
360
708
  3
REFLECTIONTILE
360
707
  3
REFRACTIONTILE
360
709
  3
SPECULARTILE
360
706
  0
DICTIONARY
  5
787
330
615
100
AcDbDictionary
280
     1
281
     1
  3
ACAD_ROUNDTRIP_2008_TABLESTYLE_CELLSTYLEMAP
360
7BE
  0
XRECORD
  5
6FD
102
{ACAD_REACTORS
330
6FB
102
}
330
6FB
100
AcDbXrecord
280
     1
270
     1
271
     1
  0
XRECORD
  5
6FC
102
{ACAD_REACTORS
330
6FB
102
}
330
6FB
100
AcDbXrecord
280
     1
270
     1
271
     1
  0
XRECORD
  5
700
102
{ACAD_REACTORS
330
6FB
102
}
330
6FB
100
AcDbXrecord
280
     1
270
     1
271
     1
  0
XRECORD
  5
6FF
102
{ACAD_REACTORS
330
6FB
102
}
330
6FB
100
AcDbXrecord
280
     1
270
     1
271
     1
  0
XRECORD
  5
701
102
{ACAD_REACTORS
330
6FB
102
}
330
6FB
100
AcDbXrecord
280
     1
270
     1
271
     1
  0
XRECORD
  5
6FE
102
{ACAD_REACTORS
330
6FB
102
}
330
6FB
100
AcDbXrecord
280
     1
270
     1
271
     1
  0
XRECORD
  5
6F5
102
{ACAD_REACTORS
330
6F3
102
}
330
6F3
100
AcDbXrecord
280
     1
270
     1
271
     1
  0
XRECORD
  5
6F4
102
{ACAD_REACTORS
330
6F3
102
}
330
6F3
100
AcDbXrecord
280
     1
270
     1
271
     1
  0
XRECORD
  5
6F8
102
{ACAD_REACTORS
330
6F3
102
}
330
6F3
100
AcDbXrecord
280
     1
270
     1
271
     1
  0
XRECORD
  5
6F7
102
{ACAD_REACTORS
330
6F3
102
}
330
6F3
100
AcDbXrecord
280
     1
270
     1
271
     1
  0
XRECORD
  5
6F9
102
{ACAD_REACTORS
330
6F3
102
}
330
6F3
100
AcDbXrecord
280
     1
270
     1
271
     1
  0
XRECORD
  5
6F6
102
{ACAD_REACTORS
330
6F3
102
}
330
6F3
100
AcDbXrecord
280
     1
270
     1
271
     1
  0
XRECORD
  5
705
102
{ACAD_REACTORS
330
703
102
}
330
703
100
AcDbXrecord
280
     1
270
     1
271
     1
  0
XRECORD
  5
704
102
{ACAD_REACTORS
330
703
102
}
330
703
100
AcDbXrecord
280
     1
270
     1
271
     1
  0
XRECORD
  5
708
102
{ACAD_REACTORS
330
703
102
}
330
703
100
AcDbXrecord
280
     1
270
     1
271
     1
  0
XRECORD
  5
707
102
{ACAD_REACTORS
330
703
102
}
330
703
100
AcDbXrecord
280
     1
270
     1
271
     1
  0
XRECORD
  5
709
102
{ACAD_REACTORS
330
703
102
}
330
703
100
AcDbXrecord
280
     1
270
     1
271
     1
  0
XRECORD
  5
706
102
{ACAD_REACTORS
330
703
102
}
330
703
100
AcDbXrecord
280
     1
270
     1
271
     1
  0
CELLSTYLEMAP
  5
7BE
102
{ACAD_REACTORS
330
787
102
}
330
787
100
AcDbCellStyleMap
 90
        3
300
CELLSTYLE
  1
TABLEFORMAT_BEGIN
 90
        5
170
     1
 91
        0
 92
    32768
 62
   257
 93
        1
300
CONTENTFORMAT
  1
CONTENTFORMAT_BEGIN
 90
        0
 91
        0
 92
        4
 93
        0
300

 40
0.0
140
1.0
 94
        5
 62
     0
340
11
144
6.0
309
CONTENTFORMAT_END
171
     1
301
MARGIN
  1
CELLMARGIN_BEGIN
 40
1.5
 40
1.5
 40
1.5
 40
1.5
 40
0.18
 40
0.18
309
CELLMARGIN_END
 94
        6
 95
        1
302
GRIDFORMAT
  1
GRIDFORMAT_BEGIN
 90
        0
 91
        1
 62
     0
 92
       -2
340
0
 93
        0
 40
0.045
309
GRIDFORMAT_END
 95
        2
302
GRIDFORMAT
  1
GRIDFORMAT_BEGIN
 90
        0
 91
        1
 62
     0
 92
       -2
340
0
 93
        0
 40
0.045
309
GRIDFORMAT_END
 95
        4
302
GRIDFORMAT
  1
GRIDFORMAT_BEGIN
 90
        0
 91
        1
 62
     0
 92
       -2
340
0
 93
        0
 40
0.045
309
GRIDFORMAT_END
 95
        8
302
GRIDFORMAT
  1
GRIDFORMAT_BEGIN
 90
        0
 91
        1
 62
     0
 92
       -2
340
0
 93
        0
 40
0.045
309
GRIDFORMAT_END
 95
       16
302
GRIDFORMAT
  1
GRIDFORMAT_BEGIN
 90
        0
 91
        1
 62
     0
 92
       -2
340
0
 93
        0
 40
0.045
309
GRIDFORMAT_END
 95
       32
302
GRIDFORMAT
  1
GRIDFORMAT_BEGIN
 90
        0
 91
        1
 62
     0
 92
       -2
340
0
 93
        0
 40
0.045
309
GRIDFORMAT_END
309
TABLEFORMAT_END
  1
CELLSTYLE_BEGIN
 90
        1
 91
        1
300
_TITLE
309
CELLSTYLE_END
300
CELLSTYLE
  1
TABLEFORMAT_BEGIN
 90
        5
170
     1
 91
        0
 92
        0
 62
   257
 93
        1
300
CONTENTFORMAT
  1
CONTENTFORMAT_BEGIN
 90
        0
 91
        0
 92
        4
 93
        0
300

 40
0.0
140
1.0
 94
        5
 62
     0
340
11
144
4.5
309
CONTENTFORMAT_END
171
     1
301
MARGIN
  1
CELLMARGIN_BEGIN
 40
1.5
 40
1.5
 40
1.5
 40
1.5
 40
0.18
 40
0.18
309
CELLMARGIN_END
 94
        6
 95
        1
302
GRIDFORMAT
  1
GRIDFORMAT_BEGIN
 90
        0
 91
        1
 62
     0
 92
       -2
340
0
 93
        0
 40
0.045
309
GRIDFORMAT_END
 95
        2
302
GRIDFORMAT
  1
GRIDFORMAT_BEGIN
 90
        0
 91
        1
 62
     0
 92
       -2
340
0
 93
        0
 40
0.045
309
GRIDFORMAT_END
 95
        4
302
GRIDFORMAT
  1
GRIDFORMAT_BEGIN
 90
        0
 91
        1
 62
     0
 92
       -2
340
0
 93
        0
 40
0.045
309
GRIDFORMAT_END
 95
        8
302
GRIDFORMAT
  1
GRIDFORMAT_BEGIN
 90
        0
 91
        1
 62
     0
 92
       -2
340
0
 93
        0
 40
0.045
309
GRIDFORMAT_END
 95
       16
302
GRIDFORMAT
  1
GRIDFORMAT_BEGIN
 90
        0
 91
        1
 62
     0
 92
       -2
340
0
 93
        0
 40
0.045
309
GRIDFORMAT_END
 95
       32
302
GRIDFORMAT
  1
GRIDFORMAT_BEGIN
 90
        0
 91
        1
 62
     0
 92
       -2
340
0
 93
        0
 40
0.045
309
GRIDFORMAT_END
309
TABLEFORMAT_END
  1
CELLSTYLE_BEGIN
 90
        2
 91
        1
300
_HEADER
309
CELLSTYLE_END
300
CELLSTYLE
  1
TABLEFORMAT_BEGIN
 90
        5
170
     1
 91
        0
 92
        0
 62
   257
 93
        1
300
CONTENTFORMAT
  1
CONTENTFORMAT_BEGIN
 90
        0
 91
        0
 92
        4
 93
        0
300

 40
0.0
140
1.0
 94
        2
 62
     0
340
11
144
4.5
309
CONTENTFORMAT_END
171
     1
301
MARGIN
  1
CELLMARGIN_BEGIN
 40
1.5
 40
1.5
 40
1.5
 40
1.5
 40
0.18
 40
0.18
309
CELLMARGIN_END
 94
        6
 95
        1
302
GRIDFORMAT
  1
GRIDFORMAT_BEGIN
 90
        0
 91
        1
 62
     0
 92
       -2
340
0
 93
        0
 40
0.045
309
GRIDFORMAT_END
 95
        2
302
GRIDFORMAT
  1
GRIDFORMAT_BEGIN
 90
        0
 91
        1
 62
     0
 92
       -2
340
0
 93
        0
 40
0.045
309
GRIDFORMAT_END
 95
        4
302
GRIDFORMAT
  1
GRIDFORMAT_BEGIN
 90
        0
 91
        1
 62
     0
 92
       -2
340
0
 93
        0
 40
0.045
309
GRIDFORMAT_END
 95
        8
302
GRIDFORMAT
  1
GRIDFORMAT_BEGIN
 90
        0
 91
        1
 62
     0
 92
       -2
340
0
 93
        0
 40
0.045
309
GRIDFORMAT_END
 95
       16
302
GRIDFORMAT
  1
GRIDFORMAT_BEGIN
 90
        0
 91
        1
 62
     0
 92
       -2
340
0
 93
        0
 40
0.045
309
GRIDFORMAT_END
 95
       32
302
GRIDFORMAT
  1
GRIDFORMAT_BEGIN
 90
        0
 91
        1
 62
     0
 92
       -2
340
0
 93
        0
 40
0.045
309
GRIDFORMAT_END
309
TABLEFORMAT_END
  1
CELLSTYLE_BEGIN
 90
        3
 91
        2
300
_DATA
309
CELLSTYLE_END
  0
ENDSEC
  0
EOF

